Facebook Twitter GOOGLE+





Torrent’s details
Name Epic 2013 BRRip 480p x264 AAC - VYTO [P2PDL]
Download Torrent Epic 2013 BRRip 480p x264 AAC - VYTO [P2PDL]
Info Hash 5b2f67738c06cc2feaadad2604c2f5d00116fb06
Share with friends
Who thanked
Image
Description



Epic 2013 BRRip 480p x264 AAC - VYTO


Quote:

Genre: Animation | Adventure | Family
Plot: A teenager finds herself transported to a deep forest setting where a battle
between the forces of good and the forces of evil is taking place. She bands together
with a rag-tag group characters in order to save their world -- and ours.
Director: Chris Wedge
Stars: Colin Farrell, Josh Hutcherson, Beyoncé Knowles.
Rated: PG for mild action, some scary images and brief rude language.



IMDb:
http://www.imdb.com/title/tt0848537/

Trailer:
https://www.youtube.com/watch?v=hEPziGrvs_Q


Quote:

General
Format : MPEG-4
File size : 309 MiB
Duration : 1h 42mn
Overall bit rate mode : Variable
Overall bit rate : 422 Kbps

Video
Format : AVC
Bit rate : 379 Kbps
Width : 720 pixels
Height : 304 pixels
Display aspect ratio : 2.35:1
Frame rate mode : Constant
Frame rate : 23.976 fps
Bit depth : 10 bits
Stream size : 278 MiB (90%)
Writing library : x264 core 133 r2334 a3ac64b

Audio
Format : AAC
Bit rate mode : Variable
Bit rate : 39.9 Kbps
Channel(s) : 2 channels
Channel positions : Front: L R
Sampling rate : 48.0 KHz / 24.0 KHz
Stream size : 29.3 MiB (9%)
Language : English


Subtitle : Yes (English)
Source : 720p.BluRay.X264-SPARKS












----------------------------------------------------------------------------------------------------


Quote:

Encoded using revolutionary 10bit encoding, which enables us to provide you more crispier
and sharper images at small sizes, just make sure you follow our instructions without a fault.
Recommend to you to use latest version of VLC player. Install K-Lite Codec Pack or shark007 codecs
in case of any kind of problem in playback (For non-VLC Media Player users). Alternatively, install
Core AVC codecs, the fastest decoder that there is coupled with Community Center Codec Pack and play
on Windows Media Player Classic. Check sample to be sure.
Enjoy!

Encoder Notes:Looking For Early Access To Anything You Can Provide DVDScr, R5, DVDR, BluRay, Direct
Audio, Music Releases and Seedboxes. We require dedicated servers, so as to do more
and fast releases of movies.
If You Got anything to offer please contact us at "[email protected]".






Screenshots
Category Movies
Rating N/A
Size 316.90 MB
Show/Hide Files
9 files
AddDate 09/08/2013
Uploader Vitamin_X
Speed 0 KB/sec
Viewed 17 times
Down 0 times
peers
seeds: 1, leechers: 1 = 2 peers
Bookmark Bookmark This Torrent
Report Torrent