Chat
Users Online
+ 16 Guests online in the last 24 hours.

Welcome to our newest member, CindyWardy
Ads
Torrent name: Dragon.Blade.2015.BRRip.480p.x264.AAC-VYTO [P2PDL]
File size: 442.52 MB
Seeds: 5
Leechs: 0
Categories: Movies SD
Torrent hash: 1cd59bf3c4d9be78f58e7b77a55c0bad90a77335
Social Share:
Uploader: VYTO
Verified torrent:
    - udp://tracker.coppersurfer.tk:6969/announce
    - udp://tracker.openbittorrent.com:80/announce
    - udp://tracker.istole.it:80/announce
    - http://tracker.pow7.com/announce
    - udp://9.rarbg.com:2710/announce
    - http://tracker.aletorrenty.pl:2710/announce
    - udp://9.rarbg.me:2710/announce
    - http://10.rarbg.com:80/announce
    - udp://exodus.desync.com:6969/announce
    - udp://open.demonii.com:1337/announce
    - udp://inferno.demonoid.ph:3389/announce
    - udp://tracker.publicbt.com:80/announce
    - http://ipv4.tracker.harry.lu:80/announce
    - udp://tracker.leechers-paradise.org:6969/announce
    - udp://inferno.demonoid.ooo:3392/announce
Download Dragon.Blade.2015.BRRip.480p.x264.AAC-VYTO [P2PDL]
Download .torrent   Magnet Link
Torrent detail

Dragon.Blade.2015.BRRip.480p.x264.AAC-VYTO [P2PDL]

Dragon.Blade.2015.BRRip.480p.x264.AAC-VYTO


Genre: Action, Adventure, Drama
IMDb: http://www.imdb.com/title/tt3672840/

Format                         : MPEG-4
Format profile                 : Base Media
File size                      : 436 MiB
Overall bit rate               : 480 Kbps

Video
Format                         : AVC
Bit rate                       : 437 Kbps
Width                          : 720 pixels
Height                         : 304 pixels
Display aspect ratio           : 2.35:1
Frame rate mode                : Constant
Frame rate                     : 24.000 fps
Bit depth                      : 8 bits
Stream size                    : 397 MiB (91%)
Writing library                : x264 core 146 r2538 121396c

Audio
Format                         : AAC
Bit rate mode                  : Variable
Bit rate                       : 40.0 Kbps
Channel(s)                     : 2 channels
Channel positions              : Front: L R
Sampling rate                  : 48.0 KHz
Stream size                    : 36.4 MiB (8%)
Language                       : Chinese

Subtitle                    : Yes(English)
Source                      : 720p.Bluray.x264.DTS-iFT

http://someimage.com/BTFN8JQ
http://someimage.com/IPR00GS
http://someimage.com/sUptOrY
http://someimage.com/V8HxwFh
http://someimage.com/VQXf4Vz
http://someimage.com/5fOlPuu
http://someimage.com/o3uaqOR
http://someimage.com/gMIOQMR
http://someimage.com/iEHzGfl

Files list

- Dragon.Blade.2015.BRRip.480p.x264.AAC-VYTO.mp4 File size : 436.35 MB
- Sample.mp4 File size : 6.08 MB
- Dragon.Blade.2015.BRRip.480p.x264.AAC-VYTO.srt File size : 59.04 KB
- VYTO.png File size : 39.3 KB
- Dragon.Blade.2015.BRRip.480p.x264.AAC-VYTO.nfo File size : 3.97 KB
- Torrent downloaded from demonoid.pw.txt File size : 46 B
- Torrent downloaded from P2PDL.com.txt File size : 33 B

Disqus