Chat
Users Online
+ 9 Guests online in the last 24 hours.

Welcome to our newest member, Rubberzqj
Ads
Torrent name: Get.Hard.2015.BRRip.480p.x264.AAC-VYTO [P2PDL]
File size: 355.45 MB
Seeds: 0
Leechs: 0
Categories: Movies SD
Torrent hash: 30d486a44c52e7b81a9617c49d73f7dcebdeea3d
Social Share:
Uploader: VYTO
Verified torrent:
    - udp://tracker.coppersurfer.tk:6969/announce
    - udp://tracker.openbittorrent.com:80/announce
    - udp://tracker.istole.it:80/announce
    - http://tracker.pow7.com/announce
    - udp://9.rarbg.com:2710/announce
    - http://tracker.aletorrenty.pl:2710/announce
    - udp://9.rarbg.me:2710/announce
    - http://10.rarbg.com:80/announce
    - udp://exodus.desync.com:6969/announce
    - udp://open.demonii.com:1337/announce
    - udp://inferno.demonoid.ph:3389/announce
    - udp://tracker.publicbt.com:80/announce
    - http://ipv4.tracker.harry.lu:80/announce
    - udp://tracker.leechers-paradise.org:6969/announce
    - udp://inferno.demonoid.ooo:3392/announce
Download Get.Hard.2015.BRRip.480p.x264.AAC-VYTO [P2PDL]
Download .torrent   Magnet Link
Torrent detail

Get.Hard.2015.BRRip.480p.x264.AAC-VYTO [P2PDL]

Get.Hard.2015.BRRip.480p.x264.AAC-VYTO


Genre: Comedy 
IMDb: http://www.imdb.com/title/tt2561572/


Format                         : MPEG-4
File size                      : 351 MiB
Duration                       : 1h 46mn
Overall bit rate               : 460 Kbps

Video
Format                         : AVC
Bit rate                       : 425 Kbps
Width                          : 720 pixels
Height                         : 408 pixels
Display aspect ratio           : 16:9
Frame rate mode                : Constant
Frame rate                     : 23.976 fps
Bit depth                      : 8 bits
Stream size                    : 324 MiB (92%)
Writing library                : x264 core 146 r2538 121396c

Audio
Format                         : AAC
Bit rate mode                  : Variable
Bit rate                       : 31.9 Kbps
Channel(s)                     : 2 channels 
Channel positions              : Front: L R 
Sampling rate                  : 48.0 KHz
Stream size                    : 24.4 MiB (7%)
Language                       : English

Subtitle                    : Yes(English)
Source                      : UNRATED.720p.BluRay.x264-SPARKS

Files list

- Get.Hard.2015.BRRip.480p.x264.AAC-VYTO.mp4 File size : 351.14 MB
- Get.Hard.2015.BRRip.480p.x264.AAC-VYTO.nfo File size : 3.95 KB
- Get.Hard.2015.BRRip.480p.x264.AAC-VYTO.srt File size : 141.29 KB
- Sample.mp4 File size : 4.13 MB
- Torrent downloaded from demonoid.pw.txt File size : 46 B
- Torrent downloaded from P2PDL.com.txt File size : 33 B
- VYTO.png File size : 39.3 KB

Disqus