Chat
Users Online
+ 7 Guests online in the last 24 hours.

Welcome to our newest member, susaniq18
Ads
Torrent name: 10,000 Saints - Ten Thousand Saints (2015).H264.italian.english.sub.ita.eng.iCV-MIRCrew
File size: 1.56 GB
Seeds: 3
Leechs: 0
Categories: Movies SD
Torrent hash: 92e158072ff1e930239d59c23b2075b7cda1c256
Social Share:
Uploader: robbyrs
Verified torrent:
    - udp://tracker.leechers-paradise.org:6969/announce
    - udp://torrent.gresille.org:80/announce
    - udp://tracker.opentrackr.org:1337/announce
    - udp://tracker.coppersurfer.tk:6969/announce
    - udp://glotorrents.pw:6969/announce
    - udp://tracker.pomf.se:80/announce
    - udp://tracker.openbittorrent.com:80/announce
    - udp://tracker.coppersurfer.tk:6969/announce
    - udp://poloniumsurfer.tk:6969/announce
    - udp://9.rarbg.com:2710/announce
    - udp://9.rarbg.to:2710/announce
    - udp://9.rarbg.me:2710/announce
Download 10,000 Saints - Ten Thousand Saints (2015).H264.italian.english.sub.ita.eng.iCV-MIRCrew
Download .torrent   Magnet Link
Torrent detail

10,000 Saints - Ten Thousand Saints (2015).H264.italian.english.sub.ita.eng.iCV-MIRCrew

10,000 Saints - Ten Thousand Saints (2015).H264.italian.english.sub.ita.eng.iCV-MIRCrew

[center]

[color=red][b][img]http://extraimago.com/images/2016/07/16/oCo82IVa08d8.png[/img]
[u]NO FOUND ONLY ORIGINAL RELEASE[/u]

My release is always in double track audio italian and Original audio
for select it use VLC or dvd player home
not use wmp

Ten Thousand Saints - 10,000 Saints (2015)

[img]http://extraimago.com/images/2016/08/04/5a97ece76837d4e043c60bdbabc5bb03.png[/img]

[URL=http://www.imdb.com/title/tt3397754/][IMG]http://www.userlogos.org/files/logos/Sucka/imdb_new.png[/IMG][/URL]

[img]http://i.imgur.com/fWCejk0.png[/img]

Paese di produzione     USA
Anno     2015
Durata     113
Genere     drammatico
Regia     Shari Springer Berman e Robert Pulcini

[img]http://i.imgur.com/V3qrNAd.png[/img]


    Asa Butterfield: Jude Keffy-Horn
    Ethan Hawke: Leslie "Les" Keffy-Horn
    Hailee Steinfeld: Eliza Urbanski
    Emily Mortimer: Diane Urbanski
    Julianne Nicholson: Harriet
    Emile Hirsch: Johnny
    Avan Jogia: Teddy
    Nadia Alexander: Prudence Keffy-Horn
    Henry Kelemen: Jude da bambino


[img]http://i.imgur.com/GOBJ1sT.png[/img]

Jude Keffy-Horn è un adolescente che, dopo la morte per overdose del migliore amico Teddy, si trasferisce a New York, dove vive il padre Les. Qui incontrerà Johnny, fratellastro di Teddy, e soprattutto Eliza, una ragazzina rimasta incinta, figlia peraltro della donna con cui il padre di Jude ha una relazione...............

[img]http://i.imgur.com/R7WrNZe.png[/img]

Set in the 1980s, a teenager from Vermont moves to New York City to live with his father in East Village........................

[img]http://i.imgur.com/GgEl7ea.png[/img]

[img]http://extraimago.com/images/2016/08/04/7d1331c23c74a433f1abb1092326ffe0.png[/img]
[img]http://extraimago.com/images/2016/08/04/435d6af462550006ca96a59f449ad7e2.png[/img]
[img]http://extraimago.com/images/2016/08/04/ae48cc2ed26df1008390d1575723f4cd.png[/img]

[img]http://i.imgur.com/Hm4fw0l.png[/img]


[spoiler]
General
Unique ID                                : 229338191637472927411404511583306665807 (0xAC88EDD74F68814EE4F49B0B11724F4F)
Complete name                            : Ten Thousand Saints (2015).H264.ita.eng.sub.ita.eng.iCV-MIRCrew.mkv
Format                                   : Matroska
Format version                           : Version 2
File size                                : 1.56 GiB
Duration                                 : 1h 47mn
Overall bit rate                         : 2 090 Kbps
Movie name                               : http://www.icv-crew.org/forum/index.php?board=32.0
Encoded date                             : UTC 2016-08-03 19:43:16
Writing application                      : Lavf54.63.100
Writing library                          : Lavf54.63.100

Video
ID                                       : 1
Format                                   : AVC
Format/Info                              : Advanced Video Codec
Format profile                           : [email protected]
Format settings, CABAC                   : Yes
Format settings, ReFrames                : 2 frames
Codec ID                                 : V_MPEG4/ISO/AVC
Duration                                 : 1h 47mn
Bit rate                                 : 1 200 Kbps
Width                                    : 718 pixels
Height                                   : 388 pixels
Display aspect ratio                     : 1.851
Frame rate mode                          : Variable
Frame rate                               : 23.976 fps
Color space                              : YUV
Chroma subsampling                       : 4:2:0
Bit depth                                : 8 bits
Scan type                                : Progressive
Bits/(Pixel*Frame)                       : 0.180
Stream size                              : 883 MiB (55%)
Title                                    : Ten Thousand Saints (2015) FullHD 1080p AC3 iTA DTS AC3 ENG SUBS - DDN
Writing library                          : x264 core 130 r2273
Encoding settings                        : cabac=1 / ref=2 / deblock=1:0:0 / analyse=0x1:0x131 / me=hex / subme=7 / psy=1 / psy_rd=1.00:0.00 / mixed_ref=0 / me_range=16 / chroma_me=1 / trellis=1 / 8x8dct=0 / cqm=0 / deadzone=21,11 / fast_pskip=1 / chroma_qp_offset=-2 / threads=12 / lookahead_threads=2 / sliced_threads=0 / nr=0 / decimate=1 / interlaced=0 / bluray_compat=0 / constrained_intra=0 / bframes=3 / b_pyramid=0 / b_adapt=1 / b_bias=0 / direct=3 / weightb=1 / open_gop=0 / weightp=2 / keyint=230 / keyint_min=23 / scenecut=40 / intra_refresh=0 / rc_lookahead=40 / rc=abr / mbtree=1 / bitrate=1200 / ratetol=1.0 / qcomp=0.60 / qpmin=10 / qpmax=69 / qpstep=4 / vbv_maxrate=24000 / vbv_bufsize=24000 / nal_hrd=none / ip_ratio=1.40 / aq=1:1.00
Language                                 : English
Default                                  : Yes
Forced                                   : No
DURATION                                 : 01:47:05.670000000
NUMBER_OF_FRAMES                         : 154062
NUMBER_OF_BYTES                          : 8836248161
_STATISTICS_WRITING_APP                  : mkvmerge v8.3.0 ('Over the Horizon') 64bit
_STATISTICS_WRITING_DATE_UTC             : 2016-06-29 14:57:37
_STATISTICS_TAGS                         : BPS DURATION NUMBER_OF_FRAMES NUMBER_OF_BYTES

Audio #1
ID                                       : 2
Format                                   : AC-3
Format/Info                              : Audio Coding 3
Mode extension                           : CM (complete main)
Codec ID                                 : A_AC3
Duration                                 : 1h 47mn
Bit rate mode                            : Constant
Bit rate                                 : 448 Kbps
Channel(s)                               : 6 channels
Channel positions                        : Front: L C R, Side: L R, LFE
Sampling rate                            : 48.0 KHz
Bit depth                                : 16 bits
Compression mode                         : Lossy
Stream size                              : 343 MiB (21%)
Title                                    : AC3 iTA
Language                                 : Italian
Default                                  : Yes
Forced                                   : No
DURATION                                 : 01:47:05.760000000
NUMBER_OF_FRAMES                         : 200805
NUMBER_OF_BYTES                          : 359842560
_STATISTICS_WRITING_APP                  : mkvmerge v8.3.0 ('Over the Horizon') 64bit
_STATISTICS_WRITING_DATE_UTC             : 2016-06-29 14:57:37
_STATISTICS_TAGS                         : BPS DURATION NUMBER_OF_FRAMES NUMBER_OF_BYTES

Audio #2
ID                                       : 3
Format                                   : AC-3
Format/Info                              : Audio Coding 3
Mode extension                           : CM (complete main)
Codec ID                                 : A_AC3
Duration                                 : 1h 47mn
Bit rate mode                            : Constant
Bit rate                                 : 448 Kbps
Channel(s)                               : 6 channels
Channel positions                        : Front: L C R, Side: L R, LFE
Sampling rate                            : 48.0 KHz
Bit depth                                : 16 bits
Compression mode                         : Lossy
Delay relative to video                  : 1mn 5s
Stream size                              : 343 MiB (21%)
Title                                    : AC3 ENG
Language                                 : English
Default                                  : No
Forced                                   : No
DURATION                                 : 01:47:05.792000000
NUMBER_OF_FRAMES                         : 200806
NUMBER_OF_BYTES                          : 514063360
_STATISTICS_WRITING_APP                  : mkvmerge v8.3.0 ('Over the Horizon') 64bit
_STATISTICS_WRITING_DATE_UTC             : 2016-06-29 14:57:37
_STATISTICS_TAGS                         : BPS DURATION NUMBER_OF_FRAMES NUMBER_OF_BYTES

Text #1
ID                                       : 4
Format                                   : UTF-8
Codec ID                                 : S_TEXT/UTF8
Codec ID/Info                            : UTF-8 Plain Text
Title                                    : REGULAR iTA
Language                                 : Italian
Default                                  : Yes
Forced                                   : No
DURATION                                 : 01:39:58.683000000
NUMBER_OF_FRAMES                         : 1546
NUMBER_OF_BYTES                          : 51249
_STATISTICS_WRITING_APP                  : mkvmerge v8.3.0 ('Over the Horizon') 64bit
_STATISTICS_WRITING_DATE_UTC             : 2016-06-29 14:57:37
_STATISTICS_TAGS                         : BPS DURATION NUMBER_OF_FRAMES NUMBER_OF_BYTES

Text #2
ID                                       : 5
Format                                   : UTF-8
Codec ID                                 : S_TEXT/UTF8
Codec ID/Info                            : UTF-8 Plain Text
Title                                    : REGULAR ENG
Language                                 : English
Default                                  : No
Forced                                   : No
DURATION                                 : 01:39:57.199000000
NUMBER_OF_FRAMES                         : 1710
NUMBER_OF_BYTES                          : 52243
_STATISTICS_WRITING_APP                  : mkvmerge v8.3.0 ('Over the Horizon') 64bit
_STATISTICS_WRITING_DATE_UTC             : 2016-06-29 14:57:37
_STATISTICS_TAGS                         : BPS DURATION NUMBER_OF_FRAMES NUMBER_OF_BYTES

Menu
00:00:00.000                             : :Chapter 01
00:09:15.096                             : :Chapter 02
00:18:38.617                             : :Chapter 03
00:24:31.595                             : :Chapter 04
00:32:10.137                             : :Chapter 05
00:40:23.838                             : :Chapter 06
00:52:27.853                             : :Chapter 07
01:02:41.883                             : :Chapter 08
01:09:29.582                             : :Chapter 09
01:16:40.179                             : :Chapter 10
01:28:32.557                             : :Chapter 11
01:40:46.749                             : :Chapter 12



[/spoiler]

[/color][/b][/center]

Files list

- Ten Thousand Saints (2015).H264.ita.eng.sub.ita.eng.iCV-MIRCrew.mkv File size : 1.56 GB

Disqus