Chat
Users Online
+ 8 Guests online in the last 24 hours.

Welcome to our newest member, Superchipsppy
Ads
Torrent name: 12 Round (2009).H264. Italian.English.Ac3.5.1.sub.ita.eng.iCV-MIRCrew
File size: 1.62 GB
Seeds: 12
Leechs: 8
Categories: Movies SD
Torrent hash: 367ed68a5a1d60b0b1d889c397b1460fa49c4016
Social Share:
Uploader: robbyrs
Verified torrent:
    - udp://tracker.leechers-paradise.org:6969/announce
    - udp://torrent.gresille.org:80/announce
    - udp://tracker.opentrackr.org:1337/announce
    - udp://tracker.coppersurfer.tk:6969/announce
    - udp://glotorrents.pw:6969/announce
    - udp://tracker.openbittorrent.com:80/announce
    - udp://tracker.coppersurfer.tk:6969/announce
    - udp://9.rarbg.com:2710/announce
    - udp://9.rarbg.to:2710/announce
    - udp://9.rarbg.me:2710/announce
    - http://www.wareztorrent.com/announce
    - http://tracker.tfile.me/announce
    - http://tracker.dutchtracking.nl/announce
    - http://tracker.dutchtracking.nl:80/announce
    - http://tracker.tfile.me:80/announce
Download 12 Round (2009).H264. Italian.English.Ac3.5.1.sub.ita.eng.iCV-MIRCrew
Download .torrent   Magnet Link
Torrent detail

12 Round (2009).H264. Italian.English.Ac3.5.1.sub.ita.eng.iCV-MIRCrew

12 Round (2009).H264. Italian.English.Ac3.5.1.sub.ita.eng.iCV-MIRCrew

[center]

[color=red][b][img]http://extraimago.com/images/2016/07/16/oCo82IVa08d8.png[/img]
[u]NO FOUND ONLY ORIGINAL RELEASE[/u]

My release is always in double track audio italian and Original audio
for select it use VLC or dvd player home
not use wmp

12 Round (2009)

[img]http://extraimago.com/images/2016/09/03/00d3e5fae21b596606f0459ab05dab65.png[/img]

[URL=http://www.imdb.com/title/tt1160368/][IMG]http://www.userlogos.org/files/logos/Sucka/imdb_new.png[/IMG][/URL]

[img]http://i.imgur.com/fWCejk0.png[/img]

Titolo originale     12 Rounds
Lingua originale     inglese
Paese di produzione     Stati Uniti
Anno     2009
Durata     108 min
Rapporto     2,35 : 1
Genere     azione
Regia     Renny Harlin
Sceneggiatura     Daniel Kunka
Produttore     Becki Cross Trujillo, Mark Gordon, Renny Harlin, Mike Lake, Josh McLaughlin, Vince McMahon
Casa di produzione     Midnight Sun Pictures, The Mark Gordon Company, WWE Films
Distribuzione (Italia)     20th Century Fox
Fotografia     David Boyd
Montaggio     Brian Berdan
Musiche     Trevor Rabin
Scenografia     Nicholas Lundy

[img]http://i.imgur.com/V3qrNAd.png[/img]


    John Cena: Det. Danny Fisher
    Aidan Gillen: Miles Jackson
    Ashley Scott: Molly Porter
    Steve Harris: Agente speciale George Aiken
    Brian J. White: Det. Hank Carver
    Gonzalo Menendez: Agente Ray Santiago
    Taylor Cole: Erica Kessen
    Peter Navy Tuiasosopo: Willie Dumaine

[img]http://i.imgur.com/GOBJ1sT.png[/img]

Durante il periodo di panico avvenuto al Mardi Gras, il detective Danny Fisher si ritrova ad affrontare la giornata di lavoro più impegnativa della sua carriera; il noto trafficante d'armi Miles Jackson III rapisce Molly Porter, la ragazza di Danny.

[img]http://i.imgur.com/R7WrNZe.png[/img]

Detective Danny Fisher discovers his girlfriend has been kidnapped by a ex-con tied to Fisher's past, and he'll have to successfully complete 12 challenges in order to secure her safe release. ..........

[img]http://i.imgur.com/GgEl7ea.png[/img]

[img]http://extraimago.com/images/2016/09/03/458805f240bc18615a9a08506320474d.png[/img]
[img]http://extraimago.com/images/2016/09/03/7e18237cb810cffcab4f99a31f59f27d.png[/img]
[img]http://extraimago.com/images/2016/09/03/458ef6093805e804ac3ad0394f9410ff.png[/img]

[img]http://i.imgur.com/Hm4fw0l.png[/img]


[spoiler]
General
Unique ID                                : 184247132757651613432853260320983080948 (0x8A9CB4FEE7BD45D0829AF907BE01DFF4)
Complete name                            : 12 Round (2009).H264.ita.eng.sub.ita.eng.iCV-MIRCrew.mkv
Format                                   : Matroska
Format version                           : Version 2
File size                                : 1.62 GiB
Duration                                 : 1h 49mn
Overall bit rate                         : 2 111 Kbps
Movie name                               : Visit www.icv-crew.org
Encoded date                             : UTC 2016-08-31 21:11:37
Writing application                      : Lavf54.63.100
Writing library                          : Lavf54.63.100

Video
ID                                       : 1
Format                                   : AVC
Format/Info                              : Advanced Video Codec
Format profile                           : [email protected]
Format settings, CABAC                   : Yes
Format settings, ReFrames                : 2 frames
Codec ID                                 : V_MPEG4/ISO/AVC
Duration                                 : 1h 49mn
Bit rate                                 : 1 210 Kbps
Width                                    : 720 pixels
Height                                   : 304 pixels
Display aspect ratio                     : 2.40:1
Frame rate mode                          : Variable
Frame rate                               : 23.976 fps
Color space                              : YUV
Chroma subsampling                       : 4:2:0
Bit depth                                : 8 bits
Scan type                                : Progressive
Bits/(Pixel*Frame)                       : 0.231
Stream size                              : 920 MiB (56%)
Title                                    : 12 Round
Writing library                          : x264 core 130 r2273
Encoding settings                        : cabac=1 / ref=2 / deblock=1:0:0 / analyse=0x1:0x131 / me=hex / subme=7 / psy=1 / psy_rd=1.00:0.00 / mixed_ref=0 / me_range=16 / chroma_me=1 / trellis=1 / 8x8dct=0 / cqm=0 / deadzone=21,11 / fast_pskip=1 / chroma_qp_offset=-2 / threads=12 / lookahead_threads=2 / sliced_threads=0 / nr=0 / decimate=1 / interlaced=0 / bluray_compat=0 / constrained_intra=0 / bframes=3 / b_pyramid=0 / b_adapt=1 / b_bias=0 / direct=3 / weightb=1 / open_gop=0 / weightp=2 / keyint=230 / keyint_min=23 / scenecut=40 / intra_refresh=0 / rc_lookahead=40 / rc=2pass / mbtree=1 / bitrate=1210 / ratetol=1.0 / qcomp=0.60 / qpmin=10 / qpmax=69 / qpstep=4 / cplxblur=20.0 / qblur=0.5 / vbv_maxrate=24000 / vbv_bufsize=24000 / nal_hrd=none / ip_ratio=1.40 / aq=1:1.00
Language                                 : Italian
Default                                  : Yes
Forced                                   : Yes
DURATION                                 : 01:49:39.281000000
NUMBER_OF_FRAMES                         : 157745
NUMBER_OF_BYTES                          : 10151530694
_STATISTICS_WRITING_APP                  : mkvmerge v9.2.0 ('Photograph') 64bit
_STATISTICS_WRITING_DATE_UTC             : 2016-06-22 21:03:42
_STATISTICS_TAGS                         : BPS DURATION NUMBER_OF_FRAMES NUMBER_OF_BYTES

Audio #1
ID                                       : 2
Format                                   : AC-3
Format/Info                              : Audio Coding 3
Mode extension                           : CM (complete main)
Codec ID                                 : A_AC3
Duration                                 : 1h 49mn
Bit rate mode                            : Constant
Bit rate                                 : 448 Kbps
Channel(s)                               : 6 channels
Channel positions                        : Front: L C R, Side: L R, LFE
Sampling rate                            : 48.0 KHz
Bit depth                                : 16 bits
Compression mode                         : Lossy
Delay relative to video                  : 1mn 5s
Stream size                              : 351 MiB (21%)
Title                                    : DTS 5.1 768Kbps
Language                                 : Italian
Default                                  : Yes
Forced                                   : Yes
DURATION                                 : 01:49:39.328000000
NUMBER_OF_FRAMES                         : 616812
NUMBER_OF_BYTES                          : 631615488
_STATISTICS_WRITING_APP                  : mkvmerge v9.2.0 ('Photograph') 64bit
_STATISTICS_WRITING_DATE_UTC             : 2016-06-22 21:03:42
_STATISTICS_TAGS                         : BPS DURATION NUMBER_OF_FRAMES NUMBER_OF_BYTES

Audio #2
ID                                       : 3
Format                                   : AC-3
Format/Info                              : Audio Coding 3
Mode extension                           : CM (complete main)
Codec ID                                 : A_AC3
Duration                                 : 1h 49mn
Bit rate mode                            : Constant
Bit rate                                 : 448 Kbps
Channel(s)                               : 6 channels
Channel positions                        : Front: L C R, Side: L R, LFE
Sampling rate                            : 48.0 KHz
Bit depth                                : 16 bits
Compression mode                         : Lossy
Delay relative to video                  : 1mn 5s
Stream size                              : 351 MiB (21%)
Title                                    : AC3 5.1 640Kbps
Language                                 : English
Default                                  : No
Forced                                   : No
DURATION                                 : 01:49:39.360000000
NUMBER_OF_FRAMES                         : 205605
NUMBER_OF_BYTES                          : 526348800
_STATISTICS_WRITING_APP                  : mkvmerge v9.2.0 ('Photograph') 64bit
_STATISTICS_WRITING_DATE_UTC             : 2016-06-22 21:03:42
_STATISTICS_TAGS                         : BPS DURATION NUMBER_OF_FRAMES NUMBER_OF_BYTES

Text #1
ID                                       : 4
Format                                   : ASS
Codec ID                                 : S_TEXT/ASS
Codec ID/Info                            : Advanced Sub Station Alpha
Compression mode                         : Lossless
Title                                    : Italiano forced
Language                                 : Italian
Default                                  : Yes
Forced                                   : Yes
DURATION                                 : 01:36:16.312000000
NUMBER_OF_FRAMES                         : 6
NUMBER_OF_BYTES                          : 154
_STATISTICS_WRITING_APP                  : mkvmerge v9.2.0 ('Photograph') 64bit
_STATISTICS_WRITING_DATE_UTC             : 2016-06-22 21:03:42
_STATISTICS_TAGS                         : BPS DURATION NUMBER_OF_FRAMES NUMBER_OF_BYTES

Text #2
ID                                       : 5
Format                                   : ASS
Codec ID                                 : S_TEXT/ASS
Codec ID/Info                            : Advanced Sub Station Alpha
Compression mode                         : Lossless
Title                                    : Italiano
Language                                 : Italian
Default                                  : No
Forced                                   : No
DURATION                                 : 01:44:43.486000000
NUMBER_OF_FRAMES                         : 1203
NUMBER_OF_BYTES                          : 52145
_STATISTICS_WRITING_APP                  : mkvmerge v9.2.0 ('Photograph') 64bit
_STATISTICS_WRITING_DATE_UTC             : 2016-06-22 21:03:42
_STATISTICS_TAGS                         : BPS DURATION NUMBER_OF_FRAMES NUMBER_OF_BYTES

Text #3
ID                                       : 6
Format                                   : ASS
Codec ID                                 : S_TEXT/ASS
Codec ID/Info                            : Advanced Sub Station Alpha
Compression mode                         : Lossless
Title                                    : English SDH
Language                                 : English
Default                                  : No
Forced                                   : No
DURATION                                 : 01:44:43.486000000
NUMBER_OF_FRAMES                         : 1306
NUMBER_OF_BYTES                          : 54540
_STATISTICS_WRITING_APP                  : mkvmerge v9.2.0 ('Photograph') 64bit
_STATISTICS_WRITING_DATE_UTC             : 2016-06-22 21:03:42
_STATISTICS_TAGS                         : BPS DURATION NUMBER_OF_FRAMES NUMBER_OF_BYTES

Menu
00:00:00.000                             : :Main Titles
00:02:44.581                             : :Danny and Molly
00:04:28.267                             : :Face of the Devil
00:07:36.122                             : :Double-Cross
00:11:57.049                             : :Oldest Trick in the Book
00:14:26.115                             : :Terrorist In the Trunk
00:17:33.802                             : :Officer In Pursuit
00:20:26.600                             : :I'll Remember You
00:22:25.343                             : :One Year Later
00:24:11.324                             : :A Little Help
00:26:43.351                             : :Round 1
00:28:40.593                             : :Round 2
00:33:53.489                             : :It's a Game
00:34:59.514                             : :Round 3
00:38:23.676                             : :Round 4
00:44:21.116                             : :Round 5
00:50:54.801                             : :The Hotel Monteleone
00:56:05.403                             : :Round 6
01:00:30.752                             : :Untraceable
01:03:28.763                             : :Clairbourne & Toulouse
01:06:28.109                             : :Round 7
01:14:04.606                             : :Eye For An Eye
01:15:38.033                             : :Round 8
01:17:02.826                             : :Round 9 and 10
01:25:25.578                             : :Round 11
01:29:12.930                             : :Round 12
01:31:06.711                             : :It's About the Money
01:35:31.767                             : :Everything Has a Purpose
01:36:57.937                             : :A Trip to the Hospital
01:40:06.208                             : :One Last Round
01:42:45.075                             : :Game Over
01:45:32.451                             : :End Titles



[/spoiler]

[/color][/b][/center]

Files list

- 12 Round (2009).H264.ita.eng.sub.ita.eng.iCV-MIRCrew.mkv File size : 1.62 GB

Disqus