Chat
Users Online
+ 12 Guests online in the last 24 hours.

Welcome to our newest member, Rasulcig
Ads
Torrent name: Star.Wars.Episode.IV.A.New.Hope.1977.BRRip.480p.x264-VYTO [P2PDL]
File size: 455.75 MB
Seeds: 29
Leechs: 9
Categories: Movies SD
Torrent hash: a0d0770cde1eeb664fba67b372b29a8763b06ab1
Social Share:
Uploader: VYTO
Verified torrent:
    - udp://tracker.coppersurfer.tk:6969/announce
    - udp://tracker.openbittorrent.com:80/announce
    - udp://tracker.istole.it:80/announce
    - http://tracker.pow7.com/announce
    - udp://9.rarbg.com:2710/announce
    - http://tracker.aletorrenty.pl:2710/announce
    - udp://9.rarbg.me:2710/announce
    - http://10.rarbg.com:80/announce
    - udp://exodus.desync.com:6969/announce
    - udp://open.demonii.com:1337/announce
    - udp://inferno.demonoid.ph:3389/announce
    - udp://tracker.publicbt.com:80/announce
    - http://ipv4.tracker.harry.lu:80/announce
    - udp://tracker.leechers-paradise.org:6969/announce
    - udp://inferno.demonoid.ooo:3392/announce
Download Star.Wars.Episode.IV.A.New.Hope.1977.BRRip.480p.x264-VYTO [P2PDL]
Download .torrent   Magnet Link
Torrent detail

Star.Wars.Episode.IV.A.New.Hope.1977.BRRip.480p.x264-VYTO [P2PDL]

Star.Wars.Episode.IV.A.New.Hope.1977.BRRip.480p.x264.AAC-VYTO


Genre: Action | Adventure | Fantasy
IMDb: http://www.imdb.com/title/tt0076759/

Format                      : MPEG-4
File size                   : 452 MiB
Duration                    : 2h 4mn
Overall bit rate            : 506 Kbps

Video
Format                      : AVC
Duration                    : 2h 4mn
Bit rate                    : 463 Kbps
Width                       : 720 pixels
Height                      : 304 pixels
Display aspect ratio        : 2.35:1
Frame rate mode             : Constant
Frame rate                  : 23.976 fps
Bit depth                   : 8 bits
Stream size                 : 413 MiB (91%)
Writing library             : x264 core 142 r2491 24e4fed

Audio
Format                      : AAC
Bit rate mode               : Variable
Bit rate                    : 40.0 Kbps
Channel(s)                  : 2 channels
Channel positions           : Front: L R
Sampling rate               : 48.0 KHz
Stream size                 : 35.7 MiB (8%)
Language                    : English

Subtitle                    : Yes(English)
Source                      : 720p.BluRay.x264-ROVERS

Files list

- Sample.mp4 File size : 3.93 MB
- Star.Wars.Episode.IV.A.New.Hope.1977.BRRip.480p.x264.AAC-VYTO.mp4 File size : 451.66 MB
- Star.Wars.Episode.IV.A.New.Hope.1977.BRRip.480p.x264.AAC-VYTO.nfo File size : 3.96 KB
- Star.Wars.Episode.IV.A.New.Hope.1977.BRRip.480p.x264.AAC-VYTO.srt File size : 115.81 KB
- Torrent downloaded from demonoid.pw.txt File size : 46 B
- Torrent downloaded from P2PDL.com.txt File size : 33 B
- VYTO.png File size : 39.3 KB

Disqus