Chat
Users Online
+ 10 Guests online in the last 24 hours.

Welcome to our newest member, HYOliver
Ads
Torrent name: Highlander.(1986).H264.Italian.English.German.Spanish.Ac3.5.1.multi.sub.iCV-MIRCrew
File size: 2.24 GB
Seeds: 8
Leechs: 20
Categories: Movies HD
Torrent hash: 881e12af6550f1dd58a1829ff8c8b8dfdce09f6f
Social Share:
Uploader: BaMax71
Verified torrent:
    - udp://tracker.coppersurfer.tk:6969/announce
    - udp://tracker.opentrackr.org:1337/announce
    - udp://tracker.leechers-paradise.org:6969/announce
    - udp://tracker.pubt.net:2710/announce
    - udp://9.rarbg.com:2710/announce
    - udp://9.rarbg.to:2710/announce
    - udp://9.rarbg.me:2710/announce
    - udp://open.demonii.com:1337/announce
    - http://www.wareztorrent.com/announce
    - http://tracker.tfile.me/announce
    - http://tracker.dutchtracking.nl/announce
    - http://tracker.dutchtracking.nl:80/announce
    - http://tracker.tfile.me:80/announce
    - udp://torrent.gresille.org:80/announce
    - udp://glotorrents.pw:6969/announce
    - udp://tracker.openbittorrent.com:80/announce
    - udp://tracker.pubt.net:2710/announce
Download Highlander.(1986).H264.Italian.English.German.Spanish.Ac3.5.1.multi.sub.iCV-MIRCrew
Download .torrent   Magnet Link
Torrent detail

Highlander.(1986).H264.Italian.English.German.Spanish.Ac3.5.1.multi.sub.iCV-MIRCrew

Highlander.(1986).H264.Italian.English.German.Spanish.Ac3.5.1.multi.sub.iCV-MIRCrew

[center]

[color=white][b][img]http://extraimago.com/images/2016/07/16/oCo82IVa08d8.png[/img]


[size=36pt]Highlander
L'ultimo Immortale

(1986)[/size]

[img]https://extraimage.net/images/2016/11/02/9a352e5a687a5cecf76803065d70d199.png[/img]

[url=http://www.imdb.com/title/tt0091203/][img]http://www.userlogos.org/files/logos/Sucka/imdb_new.png[/img][/url] 

[img]http://i.imgur.com/fWCejk0.png[/img]

   DATA USCITA: 30 ottobre 1986
   GENERE: Azione
   REGIA: Russell Mulcahy
   MUSICHE: Queen, Michael Kamen
   DISTRIBUZIONE: Universal
   PAESE: Gran Bretagna
   DURATA: 111 Min

[img]http://i.imgur.com/V3qrNAd.png[/img]

Christopher Lambert, Sean Connery, Clancy Brown, Roxanne Hart, Beatie Edney, Sheila Gish, Christopher Malcolm, Alan North, Jon Polito, Hugh Quarshie

[img]http://i.imgur.com/GOBJ1sT.png[/img]

Stando ad una antica leggenda, un certo numero di "immortali" è in circolazione nel mondo e anche a New York ve n'è uno, che fa l'antiquario: è Connor MacLeod, uno scozzese che nel 1536, quale rampollo di una nobile famiglia di un clan di Highlander, lottò contro Kurgan, feroce capo di un clan rivale, restando gravemente ferito. Scacciato per superstizione dagli abitanti del suo villaggio, il giovane conosce e sposa la bella Heather, finché un giorno Ramirez, un nobile spagnolo (immortale pure lui), lo trova tra rocce e pecore e gli svela che sia lui che Kurgan sono della razza che sfida il tempo, destinati tutti, nei secoli a venire, a lottare tra loro, fino alla "Grande Adunanza" dei rarissimi superstiti. Ogni incontro tra i superdotati non può concludersi che con la decapitazione del più debole.

[img]http://i.imgur.com/R7WrNZe.png[/img]

According to an ancient legend, a number of "immortal" is circulating in the world and also in New York there is one, which is the antique dealer is Connor MacLeod, a Scot who in 1536, as a scion of a noble family of a Highlander clan fought Kurgan, fierce head of a rival clan, prejudice seriously injured. Banished superstition by the inhabitants of his village, the young man he met and married the beautiful Heather, until one day Ramirez, a Spanish nobleman (immortal him as well), located between the rocks and sheep and reveals that he and Kurgan are breed defies time, for everyone, for centuries to come, to fight each other, until the "Great Gathering" of the rare survivors. Every meeting between the gifted can not be concluded that with the decapitation of the weakest.

[img]http://i.imgur.com/GgEl7ea.png[/img]

[url=https://extraimage.net/image/w5mw][img]https://extraimage.net/images/2016/11/02/ea146626a895b13888103bd0bc841655.md.png[/img][/url][url=https://extraimage.net/image/w5ma][img]https://extraimage.net/images/2016/11/02/ef9d1b7b531705fda72aa35fd3f1cd2c.md.png[/img][/url][url=https://extraimage.net/image/w5m8][img]https://extraimage.net/images/2016/11/02/12637c68ae807f29c7a2fbb1effb7152.md.png[/img][/url][url=https://extraimage.net/image/w5Rf][img]https://extraimage.net/images/2016/11/02/ba86ec0f365a9f6dd0c2f416eecda10d.md.png[/img][/url][url=https://extraimage.net/image/w5RW][img]https://extraimage.net/images/2016/11/02/72d19e2f0871188c2393341b3172af4b.md.png[/img][/url]

[img]http://i.imgur.com/Hm4fw0l.png[/img]


[spoiler]
General
Unique ID                                : 84805093693768001543982839982530129327 (0x3FCCDDEFA86BEB7DA430C825F17E6DAF)
Complete name                            : Highlander.(1986).H264.Italian.English.German.Spanish.Ac3.5.1.multi.sub.iCV-MIRCrew.mkv
Format                                   : Matroska
Format version                           : Version 2
File size                                : 2.15 GiB
Duration                                 : 1 h 51 min
Overall bit rate                         : 2 765 kb/s
Encoded date                             : UTC 2016-10-27T17:35:54Z
Writing application                      : HandBrake 0.10.5 2016021100
Writing library                          : Lavf55.12.0 / Lavf55.12.0

Video
ID                                       : 1
Format                                   : AVC
Format/Info                              : Advanced Video Codec
Format profile                           : [email protected]
Format settings, CABAC                   : Yes
Format settings, ReFrames                : 4 frames
Codec ID                                 : V_MPEG4/ISO/AVC
Duration                                 : 1 h 51 min
Bit rate                                 : 1 270 kb/s
Width                                    : 720 pixels
Height                                   : 566 pixels
Display aspect ratio                     : 16:9
Original display aspect ratio            : 16:9
Frame rate mode                          : Constant
Frame rate                               : 25.000 FPS
Color space                              : YUV
Chroma subsampling                       : 4:2:0
Bit depth                                : 8 bits
Scan type                                : Progressive
Bits/(Pixel*Frame)                       : 0.125
Stream size                              : 987 MiB (45%)
Writing library                          : x264 core 142 r2479 dd79a61
Encoding settings                        : cabac=1 / ref=1 / deblock=1:0:0 / analyse=0x1:0x111 / me=hex / subme=2 / psy=1 / psy_rd=1.00:0.00 / mixed_ref=0 / me_range=16 / chroma_me=1 / trellis=0 / 8x8dct=0 / cqm=0 / deadzone=21,11 / fast_pskip=1 / chroma_qp_offset=0 / threads=6 / lookahead_threads=2 / sliced_threads=0 / nr=0 / decimate=1 / interlaced=0 / bluray_compat=0 / constrained_intra=0 / bframes=3 / b_pyramid=2 / b_adapt=1 / b_bias=0 / direct=1 / weightb=1 / open_gop=0 / weightp=1 / keyint=250 / keyint_min=25 / scenecut=40 / intra_refresh=0 / rc_lookahead=10 / rc=2pass / mbtree=1 / bitrate=1270 / ratetol=1.0 / qcomp=0.60 / qpmin=0 / qpmax=69 / qpstep=4 / cplxblur=20.0 / qblur=0.5 / vbv_maxrate=20000 / vbv_bufsize=25000 / nal_hrd=none / filler=0 / ip_ratio=1.40 / aq=1:1.00
Default                                  : Yes
Forced                                   : No
Color range                              : Limited
Color primaries                          : BT.601 PAL
Transfer characteristics                 : BT.709
Matrix coefficients                      : BT.601

Audio #1
ID                                       : 2
Format                                   : AC-3
Format/Info                              : Audio Coding 3
Mode extension                           : CM (complete main)
Format settings, Endianness              : Big
Codec ID                                 : A_AC3
Duration                                 : 1 h 51 min
Bit rate mode                            : Constant
Bit rate                                 : 256 kb/s
Channel(s)                               : 2 channels
Channel positions                        : Front: L R
Sampling rate                            : 48.0 kHz
Frame rate                               : 31.250 FPS (1536 spf)
Compression mode                         : Lossy
Delay relative to video                  : -5 ms
Stream size                              : 204 MiB (9%)
Title                                    : Stereo
Language                                 : Italian
Default                                  : Yes
Forced                                   : No

Audio #2
ID                                       : 3
Format                                   : AC-3
Format/Info                              : Audio Coding 3
Format profile                           : Dolby Digital
Mode extension                           : CM (complete main)
Format settings, Endianness              : Big
Codec ID                                 : A_AC3
Duration                                 : 1 h 51 min
Bit rate mode                            : Constant
Bit rate                                 : 448 kb/s
Channel(s)                               : 2 channels
Channel positions                        : Front: L R
Sampling rate                            : 48.0 kHz
Frame rate                               : 31.250 FPS (1536 spf)
Compression mode                         : Lossy
Delay relative to video                  : -5 ms
Stream size                              : 357 MiB (16%)
Title                                    : Stereo
Language                                 : English
Default                                  : No
Forced                                   : No

Audio #3
ID                                       : 4
Format                                   : AC-3
Format/Info                              : Audio Coding 3
Mode extension                           : CM (complete main)
Format settings, Endianness              : Big
Codec ID                                 : A_AC3
Duration                                 : 1 h 51 min
Bit rate mode                            : Constant
Bit rate                                 : 256 kb/s
Channel(s)                               : 2 channels
Channel positions                        : Front: L R
Sampling rate                            : 48.0 kHz
Frame rate                               : 31.250 FPS (1536 spf)
Compression mode                         : Lossy
Delay relative to video                  : -5 ms
Stream size                              : 204 MiB (9%)
Title                                    : Stereo
Language                                 : English
Default                                  : No
Forced                                   : No

Audio #4
ID                                       : 5
Format                                   : AC-3
Format/Info                              : Audio Coding 3
Mode extension                           : CM (complete main)
Format settings, Endianness              : Big
Codec ID                                 : A_AC3
Duration                                 : 1 h 51 min
Bit rate mode                            : Constant
Bit rate                                 : 256 kb/s
Channel(s)                               : 2 channels
Channel positions                        : Front: L R
Sampling rate                            : 48.0 kHz
Frame rate                               : 31.250 FPS (1536 spf)
Compression mode                         : Lossy
Delay relative to video                  : -5 ms
Stream size                              : 204 MiB (9%)
Title                                    : Stereo
Language                                 : German
Default                                  : No
Forced                                   : No

Audio #5
ID                                       : 6
Format                                   : AC-3
Format/Info                              : Audio Coding 3
Mode extension                           : CM (complete main)
Format settings, Endianness              : Big
Codec ID                                 : A_AC3
Duration                                 : 1 h 51 min
Bit rate mode                            : Constant
Bit rate                                 : 256 kb/s
Channel(s)                               : 2 channels
Channel positions                        : Front: L R
Sampling rate                            : 48.0 kHz
Frame rate                               : 31.250 FPS (1536 spf)
Compression mode                         : Lossy
Delay relative to video                  : -5 ms
Stream size                              : 204 MiB (9%)
Title                                    : Stereo
Language                                 : Spanish
Default                                  : No
Forced                                   : No

Text #1
ID                                       : 7
Format                                   : VobSub
Codec ID                                 : S_VOBSUB
Codec ID/Info                            : Picture based subtitle format used on DVDs
Language                                 : English
Default                                  : No
Forced                                   : No

Text #2
ID                                       : 8
Format                                   : VobSub
Codec ID                                 : S_VOBSUB
Codec ID/Info                            : Picture based subtitle format used on DVDs
Language                                 : German
Default                                  : No
Forced                                   : No

Text #3
ID                                       : 9
Format                                   : VobSub
Codec ID                                 : S_VOBSUB
Codec ID/Info                            : Picture based subtitle format used on DVDs
Language                                 : Italian
Default                                  : No
Forced                                   : No

Text #4
ID                                       : 10
Format                                   : VobSub
Codec ID                                 : S_VOBSUB
Codec ID/Info                            : Picture based subtitle format used on DVDs
Language                                 : Spanish
Default                                  : No
Forced                                   : No

Text #5
ID                                       : 11
Format                                   : VobSub
Codec ID                                 : S_VOBSUB
Codec ID/Info                            : Picture based subtitle format used on DVDs
Language                                 : Portuguese
Default                                  : No
Forced                                   : No

Text #6
ID                                       : 12
Format                                   : VobSub
Codec ID                                 : S_VOBSUB
Codec ID/Info                            : Picture based subtitle format used on DVDs
Language                                 : Turkish
Default                                  : No
Forced                                   : No

Menu
00:00:00.000                             : :Chapter 1
00:10:17.240                             : :Chapter 2
00:15:35.000                             : :Chapter 3
00:18:11.720                             : :Chapter 4
00:22:13.080                             : :Chapter 5
00:24:35.560                             : :Chapter 6
00:26:34.920                             : :Chapter 7
00:30:54.520                             : :Chapter 8
00:33:26.920                             : :Chapter 9
00:37:43.760                             : :Chapter 10
00:43:09.040                             : :Chapter 11
00:47:01.080                             : :Chapter 12
00:49:20.960                             : :Chapter 13
00:56:17.320                             : :Chapter 14
01:00:35.440                             : :Chapter 15
01:05:52.000                             : :Chapter 16
01:10:10.600                             : :Chapter 17
01:21:02.372                             : :Chapter 18
01:23:36.732                             : :Chapter 19
01:28:39.092                             : :Chapter 20
01:32:50.852                             : :Chapter 21
01:36:06.652                             : :Chapter 22
01:46:47.572                             : :Chapter 23
01:48:13.812                             : :Chapter 24





[/spoiler][url=http://www.torrent-stats.info][img]http://torrent-stats.info/829f/1b80f974a.png[/img][/url]

Files list

- bonus.mkv File size : 94.56 MB
- Highlander.(1986).H264.Italian.English.German.Spanish.Ac3.5.1.multi.sub.iCV-MIRCrew.mkv File size : 2.15 GB

Disqus