Chat
Users Online
+ 15 Guests online in the last 24 hours.

Welcome to our newest member, Loranar
Ads
Torrent name: La.Casa.Dei.Mille.Corpi.House.Of.1000.Corpes.(2002).H264.Italian.English.Ac3.5.1.sub.ita.iCV-MIRCrew
File size: 1.5 GB
Seeds: 4
Leechs: 11
Categories: Movies HD
Torrent hash: d95bedcaccddf52db31f4180ce0f1ea131d34c74
Social Share:
Uploader: BaMax71
Verified torrent:
    - udp://tracker.coppersurfer.tk:6969/announce
    - udp://tracker.opentrackr.org:1337/announce
    - udp://tracker.leechers-paradise.org:6969/announce
    - udp://tracker.pubt.net:2710/announce
    - udp://9.rarbg.com:2710/announce
    - udp://9.rarbg.to:2710/announce
    - udp://9.rarbg.me:2710/announce
    - udp://open.demonii.com:1337/announce
    - http://www.wareztorrent.com/announce
    - http://tracker.tfile.me/announce
    - http://tracker.dutchtracking.nl/announce
    - http://tracker.dutchtracking.nl:80/announce
    - http://tracker.tfile.me:80/announce
    - udp://torrent.gresille.org:80/announce
    - udp://glotorrents.pw:6969/announce
    - udp://tracker.openbittorrent.com:80/announce
    - udp://tracker.pubt.net:2710/announce
Download La.Casa.Dei.Mille.Corpi.House.Of.1000.Corpes.(2002).H264.Italian.English.Ac3.5.1.sub.ita.iCV-MIRCrew
Download .torrent   Magnet Link
Torrent detail

La.Casa.Dei.Mille.Corpi.House.Of.1000.Corpes.(2002).H264.Italian.English.Ac3.5.1.sub.ita.iCV-MIRCrew

La.Casa.Dei.Mille.Corpi.House.Of.1000.Corpes.(2002).H264.Italian.English.Ac3.5.1.sub.ita.iCV-MIRCrew

[center]

[color=white][b][img]http://extraimago.com/images/2016/07/16/oCo82IVa08d8.png[/img]


[size=36pt]La Casa Dei Mille Corpi
House Of 1000 Corpes
+ EXTRA BONUS

(2002)[/size]

[img]https://extraimage.net/images/2016/11/02/ef6d6c2a7c8dbc762b1057b83551a708.png[/img]

[url=http://www.imdb.com/title/tt0251736/][img]http://www.userlogos.org/files/logos/Sucka/imdb_new.png[/img][/url] 

[img]http://i.imgur.com/fWCejk0.png[/img]

   DATA USCITA: 25 giugno 2002
   GENERE: Horror
   REGIA: Rob Zombie
   MUSICHE: Rob Zombie, Scott Humphrey
   DISTRIBUZIONE: Eagle Pictures
   PAESE: USA
   DURATA: 85 Min

[img]http://i.imgur.com/V3qrNAd.png[/img]

Sid Haig, Bill Moseley, Sheri Moon Zombie, Karen Black, Chris Hardwick, Erin Daniels, Jennifer Jostyn, Rainn Wilson, Tom Towles, Matthew McGrory, Ken Johnson, Michael J. Pollard, William Bassett, Irwin Keyes, Dennis Fimple, Judith Drake, Harrison Young, David Reynolds, Walton Goggins, Gregg Gibbs, Robert Allen Mukes, Chad Bannon, Jake McKinnon, Walter Phelan, Joe Dobbs III, Irvin Mosley Jr.

[img]http://i.imgur.com/GOBJ1sT.png[/img]

Jerry, Bill, Mary e Denise durante un tour dei luoghi meno convenzionali d'America, si imbattono nel capitano Spaulding che gli narra la leggenda del Dottor Satana. Decisi a trovare l'albero su cui è stato impiccato questo strano personaggio, lungo la strada si imbattono in Baby Firefly, una ragazza rimasta in panne con la sua auto, che per ringraziarli del passaggio li invita a casa sua. Le due coppie fanno così la conoscenza della bizzarra famiglia Firefly, un clan di assassini dediti alla pratica del cannibalismo e di riti satanici e dovranno riuscire a sopravvivere nella 'casa dei 1000 corpi'...

[img]http://i.imgur.com/R7WrNZe.png[/img]

Jerry, Bill, Mary and Denise during a tour of the less conventional places in America, they ran into Captain Spaulding that the legend of Dr. Satan. I determined to find the tree on which he was hanged this strange character, along the way they encounter Baby Firefly, a girl remained stranded in his car, which to thank the passage invites them to his house. So the two couples make the acquaintance of bizarre Firefly family, a murderous clan dedicated to the practice of cannibalism and satanic rituals and must be able to survive in the 'House of 1000 Corpses' ...

[img]http://i.imgur.com/GgEl7ea.png[/img]

[url=https://extraimage.net/image/w5ij][img]https://extraimage.net/images/2016/11/02/5d4b2aa985596cc098c827463520c6af.md.png[/img][/url][url=https://extraimage.net/image/w5iT][img]https://extraimage.net/images/2016/11/02/78032c2de2e1a5d4d1ca8b3c1342209e.md.png[/img][/url][url=https://extraimage.net/image/w5in][img]https://extraimage.net/images/2016/11/02/18e4ae4b7962a5e04f3db0f899268295.md.png[/img][/url][url=https://extraimage.net/image/w5is][img]https://extraimage.net/images/2016/11/02/4201ea0c2546d98199f27c6c17a869b3.md.png[/img][/url][url=https://extraimage.net/image/w5i7][img]https://extraimage.net/images/2016/11/02/e35df568230b799e4c96e19ca0a217c8.md.png[/img][/url]

[img]http://i.imgur.com/Hm4fw0l.png[/img]


[spoiler]
General
Unique ID                                : 25006350439376310572514913484344631284 (0x12D00C43E6EEF8253C86D4A1659B9FF4)
Complete name                            : La.Casa.Dei.Mille.Corpi.House.Of.1000.Corpes.(2002).H264.Italian.English.Ac3.5.1.sub.ita.iCV-MIRCrew.mkv
Format                                   : Matroska
Format version                           : Version 2
File size                                : 1.29 GiB
Duration                                 : 1 h 25 min
Overall bit rate                         : 2 177 kb/s
Encoded date                             : UTC 2016-10-27T19:49:04Z
Writing application                      : HandBrake 0.10.5 2016021100
Writing library                          : Lavf55.12.0 / Lavf55.12.0

Video
ID                                       : 1
Format                                   : AVC
Format/Info                              : Advanced Video Codec
Format profile                           : [email protected]
Format settings, CABAC                   : Yes
Format settings, ReFrames                : 4 frames
Codec ID                                 : V_MPEG4/ISO/AVC
Duration                                 : 1 h 25 min
Bit rate                                 : 1 270 kb/s
Width                                    : 720 pixels
Height                                   : 554 pixels
Display aspect ratio                     : 1.85:1
Original display aspect ratio            : 1.85:1
Frame rate mode                          : Constant
Frame rate                               : 25.000 FPS
Color space                              : YUV
Chroma subsampling                       : 4:2:0
Bit depth                                : 8 bits
Scan type                                : Progressive
Bits/(Pixel*Frame)                       : 0.127
Stream size                              : 753 MiB (57%)
Writing library                          : x264 core 142 r2479 dd79a61
Encoding settings                        : cabac=1 / ref=1 / deblock=1:0:0 / analyse=0x1:0x111 / me=hex / subme=2 / psy=1 / psy_rd=1.00:0.00 / mixed_ref=0 / me_range=16 / chroma_me=1 / trellis=0 / 8x8dct=0 / cqm=0 / deadzone=21,11 / fast_pskip=1 / chroma_qp_offset=0 / threads=6 / lookahead_threads=2 / sliced_threads=0 / nr=0 / decimate=1 / interlaced=0 / bluray_compat=0 / constrained_intra=0 / bframes=3 / b_pyramid=2 / b_adapt=1 / b_bias=0 / direct=1 / weightb=1 / open_gop=0 / weightp=1 / keyint=250 / keyint_min=25 / scenecut=40 / intra_refresh=0 / rc_lookahead=10 / rc=2pass / mbtree=1 / bitrate=1270 / ratetol=1.0 / qcomp=0.60 / qpmin=0 / qpmax=69 / qpstep=4 / cplxblur=20.0 / qblur=0.5 / vbv_maxrate=20000 / vbv_bufsize=25000 / nal_hrd=none / filler=0 / ip_ratio=1.40 / aq=1:1.00
Default                                  : Yes
Forced                                   : No
Color range                              : Limited
Color primaries                          : BT.601 PAL
Transfer characteristics                 : BT.709
Matrix coefficients                      : BT.601

Audio #1
ID                                       : 2
Format                                   : AC-3
Format/Info                              : Audio Coding 3
Format profile                           : Dolby Digital
Mode extension                           : CM (complete main)
Format settings, Endianness              : Big
Codec ID                                 : A_AC3
Duration                                 : 1 h 25 min
Bit rate mode                            : Constant
Bit rate                                 : 448 kb/s
Channel(s)                               : 2 channels
Channel positions                        : Front: L R
Sampling rate                            : 48.0 kHz
Frame rate                               : 31.250 FPS (1536 spf)
Compression mode                         : Lossy
Delay relative to video                  : -5 ms
Stream size                              : 273 MiB (21%)
Title                                    : Stereo
Language                                 : Italian
Default                                  : Yes
Forced                                   : No

Audio #2
ID                                       : 3
Format                                   : AC-3
Format/Info                              : Audio Coding 3
Format profile                           : Dolby Digital
Mode extension                           : CM (complete main)
Format settings, Endianness              : Big
Codec ID                                 : A_AC3
Duration                                 : 1 h 25 min
Bit rate mode                            : Constant
Bit rate                                 : 448 kb/s
Channel(s)                               : 2 channels
Channel positions                        : Front: L R
Sampling rate                            : 48.0 kHz
Frame rate                               : 31.250 FPS (1536 spf)
Compression mode                         : Lossy
Delay relative to video                  : -5 ms
Stream size                              : 273 MiB (21%)
Title                                    : Stereo
Language                                 : English
Default                                  : No
Forced                                   : No

Text #1
ID                                       : 4
Format                                   : VobSub
Codec ID                                 : S_VOBSUB
Codec ID/Info                            : Picture based subtitle format used on DVDs
Language                                 : Italian
Default                                  : No
Forced                                   : No

Text #2
ID                                       : 5
Format                                   : VobSub
Codec ID                                 : S_VOBSUB
Codec ID/Info                            : Picture based subtitle format used on DVDs
Language                                 : Italian
Default                                  : No
Forced                                   : No

Menu
00:00:00.000                             : :Chapter 1
00:06:13.720                             : :Chapter 2
00:12:41.480                             : :Chapter 3
00:17:53.120                             : :Chapter 4
00:27:58.800                             : :Chapter 5
00:33:22.400                             : :Chapter 6
00:38:29.800                             : :Chapter 7
00:49:00.880                             : :Chapter 8
00:59:06.280                             : :Chapter 9
01:07:00.640                             : :Chapter 10
01:11:12.160                             : :Chapter 11
01:17:52.920                             : :Chapter 12




[/spoiler][url=http://www.torrent-stats.info][img]http://torrent-stats.info/4180/dcac7880.png[/img][/url]

Files list

- bonus.1.mkv File size : 46.8 MB
- bonus.3.mkv File size : 79.49 MB
- bonus.2.mkv File size : 80.51 MB
- La.Casa.Dei.Mille.Corpi.House.Of.1000.Corpes.mkv File size : 1.29 GB

Disqus