Chat
Users Online
+ 8 Guests online in the last 24 hours.

Welcome to our newest member, Superchipsppy
Ads
Torrent name: !![18]!!Haunting Fear 1990 HDRip 480P Dual Audio [Eng-Hin] By --=!!Choseme!!=--
File size: 291.63 MB
Seeds: 9
Leechs: 59
Categories: Movies SD
Torrent hash: be4b8b18ab4e917d69b332131b11907fff4e156b
Social Share:
Uploader: choseme
Verified torrent:
    - udp://9.rarbg.com:2710/announce
    - udp://9.rarbg.to:2710/announce
    - udp://glotorrents.pw:6969/announce
    - udp://tracker.opentrackr.org:1337/announce
    - udp://p4p.arenabg.ch:1337/announce
    - udp://glotorrents.pw:6969/announce
    - udp://tracker.glotorrents.com:6969/announce
    - udp://eddie4.nl:6969/announce
    - udp://tracker.leechers-paradise.org:6969/announce
    - udp://tracker.aletorrenty.pl:2710/announce
    - udp://tracker.pubt.net:2710/announce
    - http://torrent.gresille.org/announce
Download !![18]!!Haunting Fear 1990 HDRip 480P Dual Audio [Eng-Hin] By --=!!Choseme!!=--
Download .torrent   Magnet Link
Torrent detail

!![18]!!Haunting Fear 1990 HDRip 480P Dual Audio [Eng-Hin] By --=!!Choseme!!=--

___________________________________________________________

IMDB Link : --http://www.imdb.com/title/tt0099742/


Genres: Horror | Drama


General Info

Format                      : Matroska
Format version              : Version 4 / Version 2
File size                   : 287 MiB
Duration                    : 1h 28mn
Overall bit rate            : 454 Kbps
Movie name                  : !![18]!!Haunted Fear 1990 HDRip 480P Dual Audio [Eng-Hin] By --=!!Choseme!!=--
Encoded date                : UTC 2015-12-12 12:59:39
Writing application         : mkvmerge v8.6.1 ('Flying') 64bit
Writing library             : libebml v1.3.3 + libmatroska v1.4.4 / Lavf55.12.0

Video Info

Format                      : AVC
Format/Info                 : Advanced Video Codec
Format profile              : [email protected]
Format settings, CABAC      : Yes
Format settings, ReFrames   : 4 frames
Codec ID                    : V_MPEG4/ISO/AVC
Duration                    : 1h 28mn
Bit rate                    : 390 Kbps
Width                       : 720 pixels
Height                      : 350 pixels
Display aspect ratio        : 2.057
Frame rate mode             : Constant
Frame rate                  : 23.976 (24000/1001) fps
Color space                 : YUV
Chroma subsampling          : 4:2:0
Bit depth                   : 8 bits
Scan type                   : Progressive
Bits/(Pixel*Frame)          : 0.065
Stream size                 : 247 MiB (86%)
Title                       : !![18]!!Haunted Fear 1990 HDRip 480P Dual Audio [Eng-Hin] By --=!!Choseme!!=--
Writing library             : x264 core 142 r2479 dd79a61
Default                     : Yes
Forced                      : No
Color range                 : Limited
Color primaries             : BT.601 PAL
Transfer characteristics    : BT.709
Matrix coefficients         : BT.601

Audio Info

Audio #1

Format                      : AAC
Format/Info                 : Advanced Audio Codec
Format profile              : HE-AAC / LC
Codec ID                    : A_AAC
Duration                    : 1h 28mn
Bit rate                    : 32.0 Kbps
Channel(s)                  : 2 channels
Channel positions           : Front: L R
Sampling rate               : 22.05 KHz / 11.025 KHz
Frame rate                  : 10.767 fps (1024 spf)
Compression mode            : Lossy
Delay relative to video     : -229ms
Stream size                 : 20.2 MiB (7%)
Title                       : --=!!Choseme!!=--
Language                    : Hindi
Default                     : Yes
Forced                      : No

Audio #2

Format                      : AAC
Format/Info                 : Advanced Audio Codec
Format profile              : HE-AAC / LC
Codec ID                    : A_AAC
Duration                    : 1h 24mn
Bit rate                    : 32.0 Kbps
Channel(s)                  : 2 channels
Channel positions           : Front: L R
Sampling rate               : 22.05 KHz / 11.025 KHz
Frame rate                  : 10.767 fps (1024 spf)
Compression mode            : Lossy
Delay relative to video     : -229ms
Stream size                 : 19.4 MiB (7%)
Title                       : --=!!Choseme!!=--
Language                    : English
Default                     : No
Forced                      : No

Text

Format                      : ASS
Codec ID                    : S_TEXT/ASS
Codec ID/Info               : Advanced Sub Station Alpha
Duration                    : 1h 23mn
Bit rate                    : 0 bps
Count of elements           : 3
Compression mode            : Lossless
Stream size                 : 246 Bytes (0%)
Title                       : --=!!Choseme!!=--
Default                     : Yes
Forced                      : Yes


This Is Web Downloaded... 


Sample Included In Torrent 2 Sample Size:2.04MB 

Respected To All Staff And Admin And All Uploader

3tMoW.png DqT2G0S1E.png 1glOrAsokz.png AJjTWN.png xLUecpNIZs.png lW1Ykms3.png T25tpqL.jpg

Files list

- !![18]!!Haunting Fear 1990 HDRip 480P Dual Audio [Eng-Hin] By --=!!Choseme!!=--.mkv File size : 287.26 MB
- Sample.mkv File size : 2.04 MB
- Poster 2a.jpg File size : 432.72 KB
- Screen Shot/Screen Shot.jpg File size : 314.22 KB
- Haunting_Fear.jpg File size : 278.61 KB
- Screen Shot/1 (4).png File size : 237.98 KB
- Screen Shot/2.png File size : 229.57 KB
- Screen Shot/1 (2).png File size : 214.41 KB
- Screen Shot/1 (3).png File size : 194.03 KB
- Screen Shot/1 (5).png File size : 188.08 KB
- Screen Shot/1 (1).png File size : 153.24 KB
- poster.jpg File size : 126.9 KB
- Info.nfo File size : 7.86 KB
- !![18]!!Haunting Fear 1990 HDRip 480P Dual Audio [Eng-Hin] By --=!!Choseme!!=--.mkv.txt File size : 7.1 KB
- Sites/torrent_downloaded_from_crystaltorrents.com.txt File size : 388 B
- Sites/Torrent Downloaded From ExtraTorrent.cc.txt File size : 352 B
- Sites/flashtorrents.org.txt File size : 25 B
- Sites/www.crystaltorrents.com.txt File size : 23 B
- Sites/aletorrenty.pl.txt File size : 21 B
- Sites/sktorrent.net.txt File size : 20 B
- Sites/rdlinks.com.txt File size : 19 B
- Sites/www.p2pdl.com.txt File size : 17 B
- Sites/www.ahashare.com.txt File size : 16 B
- Sites/www.demonoid.pw.txt File size : 15 B
- Sites/www.kickass.to.txt File size : 14 B
- Sites/www.btstor.cc.txt File size : 13 B
- Sites/www.glodls.to.txt File size : 13 B
- Sites/bwtracker.com.txt File size : 13 B
- Sites/www.1337x.to.txt File size : 12 B

Disqus