Chat
Users Online
+ 18 Guests online in the last 24 hours.

Welcome to our newest member, Petermes
Ads
Torrent name: Distretto.Di.Polizia.4.Completo.(2003).H264.Ita.Ac3.2.0.iCV-MIRCrew
File size: 14.09 GB
Seeds: 7
Leechs: 1
Categories: TV SD
Torrent hash: 8649efa11e5f3caf0ce1caf799425a22e0124aa0
Social Share:
Uploader: BaMax71
Verified torrent:
    - udp://tracker.coppersurfer.tk:6969/announce
    - udp://tracker.opentrackr.org:1337/announce
    - udp://tracker.pubt.net:2710/announce
    - udp://9.rarbg.com:2710/announce
    - udp://9.rarbg.to:2710/announce
    - udp://9.rarbg.me:2710/announce
    - http://www.wareztorrent.com/announce
    - http://tracker.tfile.me/announce
    - http://tracker.dutchtracking.nl/announce
    - http://tracker.dutchtracking.nl:80/announce
    - http://tracker.tfile.me:80/announce
    - udp://torrent.gresille.org:80/announce
    - udp://glotorrents.pw:6969/announce
    - udp://tracker.openbittorrent.com:80/announce
    - udp://tracker.pubt.net:2710/announce
Download Distretto.Di.Polizia.4.Completo.(2003).H264.Ita.Ac3.2.0.iCV-MIRCrew
Download .torrent   Magnet Link
Torrent detail

Distretto.Di.Polizia.4.Completo.(2003).H264.Ita.Ac3.2.0.iCV-MIRCrew

Distretto.Di.Polizia.4.Completo.(2003).H264.Ita.Ac3.2.0.iCV-MIRCrew


[color=red][b][img]http://extraimago.com/images/2016/07/16/oCo82IVa08d8.png[/img]
[u]NO FOUND ONLY ORIGINAL RELEASE[/u]


[img]https://extraimage.net/images/2016/11/20/20ac77acbeb2a32d0bbaf399ed90df8d.png[/img]


For select audio use VLC or dvd player home

[size=36pt]Distretto Di Polizia 1 Completo

(2003)[/size]

[img]https://extraimage.net/images/2016/11/26/a00d9f726fc822b3fd0a93f5b26eb1b1.png[/img]

[img]https://extraimage.net/images/2016/11/20/36b1ce8edb8756e5791c08a4fa6556da.jpg[/img]

[url=http://www.imdb.com/title/tt0263274/][img]http://www.userlogos.org/files/logos/Sucka/imdb_new.png[/img][/url] 

[img]http://i.imgur.com/fGu1rKv.png[/img]

   DATA USCITA: 2003
   GENERE: Crimine
   REGIA: Renato De Maria
   SCENEGGIATURA: Franco Bertini
   FOTOGRAFIA: Fabrizio De Blasio
   MONTAGGIO: Alfredo Muschietti
   MUSICHE: Aldo De Scalzi
   PRODUZIONE: Lorenzo D'Ambrosio 
   DISTRIBUZIONE: TAOdue Universal
   PAESE: ITA
   DURATA: 1200 Min

[img]http://i.imgur.com/W7kBqiE.png[/img]

Claudia Pandolfi, Ricky Memphis, Giorgio Tirabassi, Giorgio Pasotti, Simone Corrente, Francesco Vitiello, Roberto Nobile, Giovanni Ferreri, Daniela Morozzi, Marco Marzocca, Bruno Armando, Giulia Michelini, Silvia De Santis, Fabrizio Contri, Pierluigi Coppola, Giuseppe Cederna

[img]http://i.imgur.com/bFK3ggF.png[/img]

Roberto e Mauro sono riuniti davanti al municipio dove finalmente si sta per celebrare il matrimonio di Giulia e Paolo. Intanto al X Tuscolano c'è molto fermento per un'urgente operazione antidroga coordinata da un certo Valerio, che faceva la scorta al papà di Giulia e Sabina, che è stato ucciso 11 anni prima (cioè nel 1992) con la moglie in circostanze misteriose. Le rivelazioni dell'uomo sono sconvolgenti. In quest'occasione vi sarà uno scontro a fuoco con il ferimento di Mauro e Ardenzi verrà preso in ostaggio.Mauro però una volta in ospedale, venuto a sapere del rapimento di Roberto, deciderà di andare via dall'ospedale per aiutare gli altri alla ricerca di Ardenzi, e arriverà in tempo per la cattura dello spacciatore. Valerio rivelerà a Paolo alcune verità sulla morte del padre di Giulia, sostenendo la tesi della presenza di una talpa nella scorta.
[img]http://i.imgur.com/48xHWWH.png[/img]

Roberto and Mauro gathered outside the town hall where finally you are going to celebrate the marriage of Julia and Paul. Meanwhile, the X Tuscolano there is much turmoil for urgent coordinated anti-drug operation by a certain Valerio, who was escorted to the father of Julia and Sabina, who was killed 11 years earlier (ie in 1992) with his wife under mysterious circumstances . The man's revelations are shocking. On this occasion there will be a shoot-out with injured Mauro and Ardenzi will be taken into ostaggio.Mauro But once in the hospital, he learned of the abduction of Roberto, he will decide to leave the hospital to help others looking of Ardenzi, and it will arrive in time to catch the drug dealer. Paul Valerio will reveal some truth about the death of the father of Julia, supporting the view of the presence of a mole in the escort.

[img]http://i.imgur.com/K8bfNTy.png[/img]

[img]https://extraimage.net/images/2016/11/26/e7cd26b610d6a60cc4126fc82f48ba35.png[/img]
[img]https://extraimage.net/images/2016/11/26/5b592abb33b70f6f2af8038d66d3979f.png[/img]
[img]https://extraimage.net/images/2016/11/26/3a82bd28184ab3a63634e38dad0e46e5.png[/img]
[img]https://extraimage.net/images/2016/11/26/1107ae51199e85b4c9d8c3142e14c369.png[/img]
[img]https://extraimage.net/images/2016/11/26/96c2d4b7769d162728b55ade909e2c17.png[/img]
[img]https://extraimage.net/images/2016/11/26/08d9ea91674065d50ed217ec05e93612.png[/img]

[img]http://i.imgur.com/aVrMohH.png[/img]


[spoiler]
General
Unique ID                                : 337891163216098007050527117636175963547 (0xFE33788E17E300881EC684926D04A59B)
Complete name                            : Distretto.Di.Polizia.4.Completo.(2003).H264.Ita.Ac3.2.0.iCV-MIRCrew.mkv
Format                                   : Matroska
Format version                           : Version 2
File size                                : 548 MiB
Duration                                 : 50 min 6 s
Overall bit rate                         : 1 529 kb/s
Encoded date                             : UTC 2016-11-15T20:46:39Z
Writing application                      : HandBrake 0.10.5 2016021100
Writing library                          : Lavf55.12.0 / Lavf55.12.0

Video
ID                                       : 1
Format                                   : AVC
Format/Info                              : Advanced Video Codec
Format profile                           : [email protected]
Format settings, CABAC                   : Yes
Format settings, ReFrames                : 4 frames
Codec ID                                 : V_MPEG4/ISO/AVC
Duration                                 : 50 min 6 s
Bit rate                                 : 1 270 kb/s
Width                                    : 704 pixels
Height                                   : 420 pixels
Display aspect ratio                     : 5:3
Frame rate mode                          : Constant
Frame rate                               : 25.000 FPS
Color space                              : YUV
Chroma subsampling                       : 4:2:0
Bit depth                                : 8 bits
Scan type                                : Progressive
Bits/(Pixel*Frame)                       : 0.172
Stream size                              : 445 MiB (81%)
Writing library                          : x264 core 142 r2479 dd79a61
Encoding settings                        : cabac=1 / ref=1 / deblock=1:0:0 / analyse=0x1:0x111 / me=hex / subme=2 / psy=1 / psy_rd=1.00:0.00 / mixed_ref=0 / me_range=16 / chroma_me=1 / trellis=0 / 8x8dct=0 / cqm=0 / deadzone=21,11 / fast_pskip=1 / chroma_qp_offset=0 / threads=6 / lookahead_threads=2 / sliced_threads=0 / nr=0 / decimate=1 / interlaced=0 / bluray_compat=0 / constrained_intra=0 / bframes=3 / b_pyramid=2 / b_adapt=1 / b_bias=0 / direct=1 / weightb=1 / open_gop=0 / weightp=1 / keyint=250 / keyint_min=25 / scenecut=40 / intra_refresh=0 / rc_lookahead=10 / rc=2pass / mbtree=1 / bitrate=1270 / ratetol=1.0 / qcomp=0.60 / qpmin=0 / qpmax=69 / qpstep=4 / cplxblur=20.0 / qblur=0.5 / vbv_maxrate=20000 / vbv_bufsize=25000 / nal_hrd=none / filler=0 / ip_ratio=1.40 / aq=1:1.00
Default                                  : Yes
Forced                                   : No
Color range                              : Limited
Color primaries                          : BT.601 PAL
Transfer characteristics                 : BT.709
Matrix coefficients                      : BT.601

Audio
ID                                       : 2
Format                                   : AC-3
Format/Info                              : Audio Coding 3
Mode extension                           : CM (complete main)
Format settings, Endianness              : Big
Codec ID                                 : A_AC3
Duration                                 : 50 min 6 s
Bit rate mode                            : Constant
Bit rate                                 : 256 kb/s
Channel(s)                               : 2 channels
Channel positions                        : Front: L R
Sampling rate                            : 48.0 kHz
Frame rate                               : 31.250 FPS (1536 spf)
Bit depth                                : 16 bits
Compression mode                         : Lossy
Delay relative to video                  : -5 ms
Stream size                              : 91.8 MiB (17%)
Title                                    : Stereo
Language                                 : Italian
Default                                  : Yes
Forced                                   : No

Menu
00:00:00.000                             : :Chapter 1
00:16:23.960                             : :Chapter 2
00:33:08.240                             : :Chapter 3
00:48:02.920                             : :Chapter 4


[/spoiler]

[img]https://extraimage.net/images/2016/11/20/c8b145b439c3898c31c1bfe2bd4d01b4.jpg[/img]

[url=http://www.torrent-stats.info][img]http://torrent-stats.info/caf7/2b2cf641e.png[/img][/url]

Files list

- 15.mkv File size : 487.94 MB
- 10.mkv File size : 512.53 MB
- 25.mkv File size : 515.54 MB
- 16.mkv File size : 517.53 MB
- 3.mkv File size : 525.59 MB
- 19.mkv File size : 535.27 MB
- 12.mkv File size : 538.95 MB
- 17.mkv File size : 543.82 MB
- 21.mkv File size : 546.72 MB
- 4.mkv File size : 547.1 MB
- 1.mkv File size : 548.13 MB
- 5.mkv File size : 553.63 MB
- 23.mkv File size : 555.31 MB
- 14.mkv File size : 561.45 MB
- 8.mkv File size : 564.12 MB
- 2.mkv File size : 564.75 MB
- 24.mkv File size : 566.5 MB
- 11.mkv File size : 567.5 MB
- 9.mkv File size : 569.26 MB
- 20.mkv File size : 573.98 MB
- 13.mkv File size : 574.33 MB
- 7.mkv File size : 575.81 MB
- 26.mkv File size : 581.29 MB
- 6.mkv File size : 581.82 MB
- 18.mkv File size : 597.26 MB
- 22.mkv File size : 622.19 MB

Disqus