Chat
Users Online
+ 10 Guests online in the last 24 hours.

Welcome to our newest member, Caseytip
Ads
Torrent name: Mobile Suit Z Gundam - A New Translation I [BDmux 1080p - H264 - Ita Aac Jap Flac 5.1 - SoftSub Eng]
File size: 9.36 GB
Seeds: 6
Leechs: 177
Categories: Others
Torrent hash: 128ceee16171894db67a4d72df3da559ed7f583d
Social Share:
Uploader: MPT2
Verified torrent:
    - http://tracker.tntvillage.scambioetico.org:2710/announce
    - udp://tracker.tntvillage.scambioetico.org:2710/announce
    - udp://tracker.coppersurfer.tk:6969/announce
    - udp://inferno.subdemon.com:3395/announce
    - udp://inferno.demonoid.pw:3395/announce
    - http://tracker.dutchtracking.nl:80/announce
    - http://www.wareztorrent.com/announce
    - udp://tracker.opentrackr.org:1337/announce
    - udp://tracker.leechers-paradise.org:6969/announce
    - http://tracker.dutchtracking.nl/announce
    - udp://9.rarbg.com:2710/announce
    - udp://9.rarbg.to:2710/announce
Download Mobile Suit Z Gundam - A New Translation I [BDmux 1080p - H264 - Ita Aac Jap Flac 5.1 - SoftSub Eng]
Download .torrent   Magnet Link
Torrent detail

Mobile Suit Z Gundam - A New Translation I [BDmux 1080p - H264 - Ita Aac Jap Flac 5.1 - SoftSub Eng]

Mobile Suit Z Gundam: A New Translation I [BDmux 1080p - H264 - Ita Aac Jap Flac - SoftSub Eng]

.: Trama :.

Anno 0087 UC, sette anni dopo la fine della Guerra di un anno.
All'indomani degli eventi narrati in Mobile Suit Gundam 0083: Stardust Memory (prequel realizzato successivamente),
l'esercito della Federazione Terrestre crea un corpo speciale di élite denominato Titani per dare la caccia ed eliminare le sacche di resistenza di Zeon.

La brutalità dei metodi terroristici adottati dai Titani per raggiungere i loro scopi fa nascere in risposta due gruppi di resistenza,
l'AEUG (Anti-Earth Union Group - Gruppo anti Unione Terrestre) e la sua emanazione terrestre Karaba
(guidata dall'ex membro della Base Bianca Hayato Kobayashi e del quale farà parte anche Amuro Ray),
che affronteranno la Federazione in quella che viene chiamata la Guerra di Gryps...

.: Locandina :.

[img]http://i.imgur.com/srpDPcj.jpg[/img]

.: Scheda :.

Titolo originale: Mobile Suit Z Gundam: A New Translation 機動戦士Zガンダム(Kidō Senshi Zēta Gandamu)
Anno: 28 maggio 2005 – 4 Marzo 2006
Genere: Mecha, Azione, Fantascienza
Studio: Sunrise
Distribuzione: Giappone NA Sunrise / Italia Dynit
Numero episodi: 3 films
Durata approssimativa: 95 minuti

: Screenshot :.

[img]http://i.imgur.com/nSGGCQY.jpg[/img]

.: Dati tecnici del file :.

General
Unique ID                   : 190761821887221413727746537708697912028 (0x8F8363F7EDD35EECB4BA5784D47B82DC)
Complete name               : G:AnimeMobile Suit Z GundamMobile Suit Z Gundam - FinitiMobile Suit Z Gundam - A New Translation I - Eredi delle stelle - (Heirs to the Stars) [Mux By MPT].mkv
Format                      : Matroska
Format version              : Version 4 / Version 2
File size                   : 9.36 GiB
Duration                    : 1 h 34 min
Overall bit rate mode       : Variable
Overall bit rate            : 14.1 Mb/s
Movie name                  : Mobile Suit Z Gundam I - A New Translation - Eredi delle stelle - (Heirs to the Stars) [Mux By MPT]
Encoded date                : UTC 2016-12-20 21:42:11
Writing application         : mkvmerge v9.6.0 ('Slave To Your Mind') 64bit
Writing library             : libebml v1.3.4 + libmatroska v1.4.5
Attachments                 : ACaslon-Regular.otf / AdobeHeitiStd-Regular.otf / AdobeHeitiStd-Regular_0.otf / AdobeKaitiStd-Regular.otf / AdobeKaitiStd-Regular_0.otf / aparaj.ttf / arial.ttf / fansubBlock.ttf / tahoma.ttf / verdana.ttf / verdanai.ttf

Video
ID                          : 1
Format                      : AVC
Format/Info                 : Advanced Video Codec
Format profile              : High [email protected]
Format settings, CABAC      : Yes
Format settings, ReFrames   : 16 frames
Codec ID                    : V_MPEG4/ISO/AVC
Duration                    : 1 h 34 min
Bit rate                    : 12.3 Mb/s
Width                       : 1 920 pixels
Height                      : 1 080 pixels
Display aspect ratio        : 16:9
Frame rate mode             : Constant
Frame rate                  : 23.976 (24000/1001) FPS
Color space                 : YUV
Chroma subsampling          : 4:2:0
Bit depth                   : 10 bits
Scan type                   : Progressive
Bits/(Pixel*Frame)          : 0.247
Stream size                 : 8.09 GiB (86%)
Title                       : Mobile Suit Z Gundam I - A New Translation - Eredi delle stelle
Writing library             : x264 core 125 r2200 999b753
Encoding settings           : cabac=1 / ref=16 / deblock=1:1:1 / analyse=0x3:0x133 / me=esa / subme=9 / psy=1 / psy_rd=0.40:0.00 / mixed_ref=1 / me_range=16 / chroma_me=1 / trellis=2 / 8x8dct=1 / cqm=0 / deadzone=21,11 / fast_pskip=0 / chroma_qp_offset=-2 / threads=6 / lookahead_threads=1 / sliced_threads=0 / nr=0 / decimate=1 / interlaced=0 / bluray_compat=0 / constrained_intra=0 / bframes=5 / b_pyramid=2 / b_adapt=2 / b_bias=0 / direct=3 / weightb=1 / open_gop=0 / weightp=2 / keyint=230 / keyint_min=23 / scenecut=40 / intra_refresh=0 / rc_lookahead=60 / rc=crf / mbtree=1 / crf=18.0 / qcomp=0.60 / qpmin=0 / qpmax=81 / qpstep=4 / ip_ratio=1.40 / aq=1:0.60
Language                    : Japanese
Default                     : Yes
Forced                      : No

Audio #1
ID                          : 2
Format                      : AAC
Format/Info                 : Advanced Audio Codec
Format profile              : LC
Codec ID                    : A_AAC
Duration                    : 1 h 34 min
Bit rate                    : 196 kb/s
Channel(s)                  : 2 channels
Channel positions           : Front: L R
Sampling rate               : 48.0 kHz
Frame rate                  : 46.875 FPS (1024 spf)
Compression mode            : Lossy
Stream size                 : 133 MiB (1%)
Title                       : Italiano
Language                    : Italian
Default                     : Yes
Forced                      : No

Audio #2
ID                          : 3
Format                      : FLAC
Format/Info                 : Free Lossless Audio Codec
Codec ID                    : A_FLAC
Duration                    : 1 h 34 min
Bit rate mode               : Variable
Bit rate                    : 1 630 kb/s
Channel(s)                  : 6 channels
Channel positions           : Front: L C R, Side: L R, LFE
Sampling rate               : 48.0 kHz
Frame rate                  : 11.719 FPS (4096 spf)
Bit depth                   : 16 bits
Stream size                 : 1.08 GiB (12%)
Title                       : Giapponese
Writing library             : libFLAC 1.2.1 (UTC 2007-09-17)
Language                    : Japanese
Default                     : No
Forced                      : No

Text
ID                          : 4
Format                      : ASS
Codec ID                    : S_TEXT/ASS
Codec ID/Info               : Advanced Sub Station Alpha
Duration                    : 1 h 33 min
Bit rate                    : 119 b/s
Count of elements           : 1444
Compression mode            : Lossless
Stream size                 : 81.5 KiB (0%)
Title                       : Inglese
Language                    : English
Default                     : No
Forced                      : No

Menu
00:00:00.000                : :Opening [Gackt - Metamorphoze]
00:02:54.174                : :Gryps Infiltration
00:06:54.414                : :The Boy from Green Noa 1
00:18:35.114                : :Wrath of the Void
00:32:38.498                : :To the End of the Feud
00:37:40.508                : :Refreshment
00:47:39.565                : :Rescue the Temptation
00:52:57.007                : :Amuro Under House Arrest
00:58:16.910                : :Gravitational Decent
01:06:35.575                : :Jaburo Dogfight
01:17:31.021                : :Reunion Under the Sunset
01:30:12.407                : :Ending [Gackt - Because You Are Waiting]


Files list

- Mobile Suit Z Gundam - A New Translation I - Eredi delle stelle - (Heirs to the Stars) [Mux By MPT].mkv File size : 9.36 GB

Disqus