Chat
Users Online
+ 10 Guests online in the last 24 hours.

Welcome to our newest member, AgrokrdSef
Ads
Torrent name: Rogue One A Star Wars Story 2016 x264 HDTS AAC(Deflickered)-DDR
File size: 1.38 GB
Seeds: 36464
Leechs: 22963
Categories: Movies SD
Torrent hash: ba119ed6890f184fe5d9f270923951e2516965f7
Social Share:
Uploader: ibot
Verified torrent:
    - udp://tracker.coppersurfer.tk:6969/announce
    - udp://tracker.zer0day.to:1337/announce
    - udp://tracker.ilibr.org:6969/announce
    - udp://tracker.leechers-paradise.org:6969/announce
    - udp://torrent.gresille.org:80/announce
    - udp://tracker.ilibr.org:80/announce
    - udp://p4p.arenabg.com:1337/announce
    - udp://p4p.arenabg.ch:1337/announce
    - udp://tracker.leechers-paradise.org:6969/announce
    - udp://tracker.coppersurfer.tk:6969/announce
    - udp://9.rarbg.me:2710/announce
    - udp://tracker.internetwarriors.net:1337/announce
    - udp://tracker.opentrackr.org:1337/announce
    - udp://eddie4.nl:6969/announce
    - udp://9.rarbg.to:2710/announce
Download Rogue One A Star Wars Story 2016 x264 HDTS AAC(Deflickered)-DDR
Download .torrent   Magnet Link
Torrent detail

Rogue One A Star Wars Story 2016 x264 HDTS AAC(Deflickered)-DDR

80954b73bf05c5e5a23bf184d41ec7ae.jpg

x264 HDTS Rip 

Foreground Video noise removed and REALLY deflickered to 100 % 

New clean English MP3 2.0 Audio 

Usual DDR Avisynth enhancements for better clarity and details
Plz Check included SAMPLE
 


08ff0fd2877100ad15b6c7c19200679e.th.png 4ff7b918aae4019e748ed8faecb04a0d.th.png 2bf436191621be2a492906abe8a243c7.th.png 23402259320b12c62ecebed4b5d58fbe.th.png 542796f6221c513d6b3df2649bea1e8e.th.png 949b2ea72ba4971c65fbe3633ba9dc2f.th.png 72f5a9415d2e35b3929a6fef4c82fd77.th.png 31e9e2c4b8eee9656ab245d2414bc6f4.th.png d0073e10dcb76e3d666bf6ab94316b27.th.png 92c1cf9de3396c21edd83f1215e3fea8.th.png 47681ac9c4ded8e9a8a965a3fc762cc5.th.png 3cfe0f3c4a13b069bc5a1ce0b29d6422.th.png d7059e7b2eaff568bffd62eabe359113.th.png 32ed484a9cbefcb9e9fbc11c9713f653.th.png
Specs:
Source: V HDTS @ Hub
A CPG Line
Format : Matroska
File size : 1.36 GiB
Duration : 2 h 5 min
Overall bit rate : 1 550 kb/s
Encoded date : UTC 2016-12-17 23:28:30

Video
Format : AVC
Format/Info : Advanced Video Codec
Format profile : [email protected]
Format settings, CABAC : Yes
Format settings, ReFrames : 16 frames
Codec ID : V_MPEG4/ISO/AVC
Duration : 2 h 5 min
Bit rate : 1 356 kb/s
Width : 720 pixels
Height : 304 pixels
Display aspect ratio : 2.35:1
Frame rate mode : Constant
Frame rate : 29.970 (30000/1001) FPS
Color space : YUV
Chroma subsampling : 4:2:0
Bit depth : 8 bits
Scan type : Progressive
Bits/(Pixel*Frame) : 0.207
Stream size : 1.19 GiB (87%)
Writing library : x264 core 148 r2744 b97ae06
Language : English
Default : Yes
Forced : No
Color range : Limited
Color primaries : BT.601 NTSC
Transfer characteristics : BT.470 System B, BT.470 System G
Matrix coefficients : BT.601



AAudio #1
Format : MPEG Audio
Format version : Version 1
Format profile : Layer 3
Codec ID : A_MPEG/L3
Codec ID/Hint : MP3
Duration : 2 h 5 min
Bit rate mode : Constant
Bit rate : 192 kb/s
Channel(s) : 2 channels
Sampling rate : 44.1 kHz
Frame rate : 38.281 FPS (1152 spf)
Compression mode : Lossy
Delay relative to video : 11 ms
Stream size : 172 MiB (12%)
Language : Hindi
Default : Yes
Forced : No

Files list

- Rogue One A Star Wars Story 2016 x264 HDTS AAC(Deflickered)-DDR.mkv File size : 1.36 GB
- sample-Rogue One A Star Wars Story 2016 x264 HDTS AAC(Deflickered)-DDR.mkv File size : 18.71 MB
- A DDR Release !!.txt File size : 287 B
- Torrent downloaded from ExtraTorrent.cc.txt File size : 28 B

Disqus