Chat
Users Online
+ 16 Guests online in the last 24 hours.

Welcome to our newest member, Kidalicrils
Ads
Torrent name: Underworld Blood Wars 2016 HDCAM NAKRO
File size: 1.16 GB
Seeds: 21167
Leechs: 5687
Categories: Movies SD
Torrent hash: d6688ec0f540319d220ddb3e899e4243e8f40051
Social Share:
Uploader: ibot
Verified torrent:
    - udp://tracker.coppersurfer.tk:6969/announce
    - udp://tracker.ilibr.org:80/announce
    - udp://tracker.leechers-paradise.org:6969/announce
    - udp://eddie4.nl:6969/announce
    - udp://tracker.ilibr.org:6969/announce
    - udp://tracker.coppersurfer.tk:6969
    - udp://tracker.zer0day.to:1337/announce
    - udp://9.rarbg.me:2710/announce
    - udp://9.rarbg.to:2710/announce
    - udp://explodie.org:6969/announce
    - udp://shadowshq.yi.org:6969/announce
    - udp://ipv4.tracker.harry.lu:80/announce
    - udp://tracker.opentrackr.org:1337/announce
    - udp://p4p.arenabg.ch:1337/announce
    - udp://p4p.arenabg.com:1337/announce
Download Underworld Blood Wars 2016 HDCAM NAKRO
Download .torrent   Magnet Link
Torrent detail

Underworld Blood Wars 2016 HDCAM NAKRO

8286a94bf35204c278be54ff4666627d.md.jpg


http://www.imdb.com/title/tt3717252/


Vampire death dealer, Selene (Kate Beckinsale) fights to end the eternal war between the Lycan clan and the Vampire faction that betrayed her.

Director: Anna Foerster
Writers: Cory Goodman (screenplay), Kyle Ward (story by)
Stars: Kate Beckinsale, Theo James, Lara Pulver
Genres: Action | Horror
Country: USA
Language: English


ENCODED BY NAKRO BABA

Video
ID : 0
Format : MPEG-4 Visual
Format profile : Advanced [email protected]
Format settings, BVOP : 2
Format settings, QPel : No
Format settings, GMC : No warppoints
Format settings, Matrix : Default (H.263)
Codec ID : DIVX
Codec ID/Info : Project Mayo
Codec ID/Hint : DivX 4
Duration : 1 h 21 min
Bit rate : 1 890 kb/s
Width : 720 pixels
Height : 384 pixels
Display aspect ratio : 1.85:1
Frame rate : 29.970 (30000/1001) FPS
Color space : YUV
Chroma subsampling : 4:2:0
Bit depth : 8 bits
Scan type : Progressive
Compression mode : Lossy
Bits/(Pixel*Frame) : 0.228
Stream size : 1.08 GiB (93%)
Writing library : XviD 64

Audio
ID : 1
Format : MPEG Audio
Format version : Version 1
Format profile : Layer 3
Mode : Joint stereo
Codec ID : 55
Codec ID/Hint : MP3
Duration : 58 min 43 s
Source duration : 1 h 21 min
Bit rate mode : Variable
Bit rate : 127 kb/s
Minimum bit rate : 32.0 kb/s
Channel(s) : 2 channels
Sampling rate : 48.0 kHz
Compression mode : Lossy
Stream size : 74.2 MiB (6%)
Alignment : Aligned on interleaves
Interleave, duration : 24 ms (0.72 video frame)
Writing library : LAME3.99r
Encoding settings : -m j -V 2 -q 0 -lowpass 18.5 --vbr-new -b 32


01b8e11b9a61065be482ce15da188a99.th.png 45510ca8010fa26f799cf5feb8638c9f.th.png 1a91b852d42db2d2748d3639eb9708c9.th.png b6ac759f27ef6ca1e33e30cc3aabdee6.th.png 5f73ec661a67c0376dbb34679a599a92.th.png b5e5d8520533543fe39d210caec5c264.th.png

Files list

- Torrent Downloaded From ExtraTorrent.cc.txt File size : 338 B
- Underworld Blood Wars 2016 HDCAM NAKRO.avi File size : 1.16 GB

Disqus