Chat
Users Online
+ 16 Guests online in the last 24 hours.

Welcome to our newest member, Duskojeasy
Ads
Torrent name: Odd Thomas - Il luogo delle ombre (2013).H264.Italian.English.Ac3.5.1.sub.ita..iCV-MIRCrew
File size: 1.46 GB
Seeds: 6
Leechs: 19
Categories: Movies SD
Torrent hash: 2b1e8c0193c477fd730c56b671035eab935549aa
Social Share:
Uploader: robbyrs
Verified torrent:
    - udp://tracker.coppersurfer.tk:6969/announce
    - udp://tracker.opentrackr.org:1337/announce
    - udp://tracker.leechers-paradise.org:6969/announce
    - udp://tracker.pubt.net:2710/announce
    - udp://9.rarbg.com:2710/announce
    - udp://9.rarbg.to:2710/announce
    - udp://9.rarbg.me:2710/announce
    - udp://open.demonii.com:1337/announce
    - http://www.wareztorrent.com/announce
    - http://tracker.tfile.me/announce
    - http://tracker.dutchtracking.nl/announce
    - http://tracker.dutchtracking.nl:80/announce
    - http://tracker.tfile.me:80/announce
    - udp://torrent.gresille.org:80/announce
    - udp://glotorrents.pw:6969/announce
    - udp://tracker.openbittorrent.com:80/announce
    - udp://tracker.pubt.net:2710/announce
    - udp://inferno.demonoid.pw:3393/announce
    - http://megafiletube.xyz:2710/announce
Download Odd Thomas - Il luogo delle ombre (2013).H264.Italian.English.Ac3.5.1.sub.ita..iCV-MIRCrew
Download .torrent   Magnet Link
Torrent detail

Odd Thomas - Il luogo delle ombre (2013).H264.Italian.English.Ac3.5.1.sub.ita..iCV-MIRCrew

Odd Thomas - Il luogo delle ombre (2013).H264.Italian.English.Ac3.5.1.sub.ita..iCV-MIRCrew

[center]

[color=red][b][img]https://s23.postimg.org/b9yhws27f/0sc_Del1.png[/img]
[u]NO FOUND ONLY ORIGINAL RELEASE[/u]

[img]http://i.imgur.com/GDNQx1Z.png[/img]

My release is always in double track audio italian and Original audio
for select it use VLC or dvd player home
not use wmp

Il luogo delle ombre - Odd Thomas (2013)

[img]http://extraimage.net/images/2017/01/09/30144f44e49bb1d0cdfa393156a11e1b.png[/img]

[URL=http://www.imdb.com/title/tt1767354/][IMG]http://www.userlogos.org/files/logos/Sucka/imdb_new.png[/IMG][/URL]

[img]http://i.imgur.com/fGu1rKv.png[/img]

Titolo originale     Odd Thomas
Lingua originale     inglese
Paese di produzione     Stati Uniti d'America
Anno     2013
Durata     100 min
Rapporto     2.35 : 1
Genere     thriller, fantastico
Regia     Stephen Sommers
Soggetto     Dean R. Koontz
Sceneggiatura     Stephen Sommers
Produttore     John Baldecchi, Howard Kaplan, Stephen Sommers
Casa di produzione     Fusion Films, Future Films, The Sommers Company
Distribuzione (Italia)     Eagle Pictures
Fotografia     Mitchell Amundsen
Montaggio     Bob Ducsay
Musiche     John Swihart

[img]http://i.imgur.com/W7kBqiE.png[/img]


    Anton Yelchin: Odd Thomas
    Willem Dafoe: Sceriffo Wyatt Porter
    Addison Timlin: Stormy Llewellyn
    Patton Oswalt: Ozzie P. Boone
    Gugu Mbatha-Raw: Viola Peabody
    Nico Tortorella: Simon Varner
    Leonor Varela: madre di Odd
    Shuler Hensley: Fungus Bob
    Melissa Ordway: Lysette Spinelli
    Kyle McKeever: Bern Eckles
    Matthew Daniel Page: Harlo Landerson


[img]http://i.imgur.com/bFK3ggF.png[/img]

Odd Thomas lavora presso la tavola calda di Pico Mundo, cittadina della California meridionale situata nel deserto del Mojave. Sembrerebbe un ragazzo come tanti altri, ma Odd ha un dono speciale; può percepire la presenza dei defunti con qualcosa di sospeso e non solo.

[img]http://i.imgur.com/48xHWWH.png[/img]

In a California desert town, a short-order cook with clairvoyant abilities encounters a mysterious man with a link to dark, threatening forces.  

[img]http://i.imgur.com/K8bfNTy.png[/img]

[url=https://extraimage.net/image/2qZh][img]http://extraimage.net/images/2017/01/09/2f8c2b3d0fc5f298affdaccd96ad10d6.th.png[/img][/url] [url=https://extraimage.net/image/2qZd][img]http://extraimage.net/images/2017/01/09/55c45a970926e5532b359297378bc2dc.th.png[/img][/url] [url=https://extraimage.net/image/2qZb][img]http://extraimage.net/images/2017/01/09/0097bf7a33b2a25ec6123fc63e26ab61.th.png[/img][/url]

[img]http://i.imgur.com/cWb6Z.gif[/img]

[img]http://i.imgur.com/aVrMohH.png[/img]


[spoiler]
General
Unique ID                                : 324047137540361204915632477407430546499 (0xF3C9356411E330F2DDE055AA39479443)
Complete name                            : Il luogo delle ombre (2013).H264.ita.eng.sub.ita.iCV-MIRCrew.mkv
Format                                   : Matroska
Format version                           : Version 2
File size                                : 1.46 GiB
Duration                                 : 1h 36mn
Overall bit rate                         : 2 151 Kbps
Encoded date                             : UTC 2017-01-08T16:36:56Z
Writing application                      : HandBrake 0.10.5 2016021100
Writing library                          : Lavf55.12.0

Video
ID                                       : 1
Format                                   : AVC
Format/Info                              : Advanced Video Codec
Format profile                           : [email protected]
Format settings, CABAC                   : Yes
Format settings, ReFrames                : 4 frames
Codec ID                                 : V_MPEG4/ISO/AVC
Duration                                 : 1h 36mn
Bit rate                                 : 1 270 Kbps
Width                                    : 720 pixels
Height                                   : 300 pixels
Display aspect ratio                     : 2.40:1
Frame rate mode                          : Variable
Frame rate                               : 24.000 fps
Color space                              : YUV
Chroma subsampling                       : 4:2:0
Bit depth                                : 8 bits
Scan type                                : Progressive
Bits/(Pixel*Frame)                       : 0.245
Stream size                              : 841 MiB (56%)
Writing library                          : x264 core 142 r2479 dd79a61
Encoding settings                        : cabac=1 / ref=1 / deblock=1:0:0 / analyse=0x1:0x111 / me=hex / subme=2 / psy=1 / psy_rd=1.00:0.00 / mixed_ref=0 / me_range=16 / chroma_me=1 / trellis=0 / 8x8dct=0 / cqm=0 / deadzone=21,11 / fast_pskip=1 / chroma_qp_offset=0 / threads=12 / lookahead_threads=2 / sliced_threads=0 / nr=0 / decimate=1 / interlaced=0 / bluray_compat=0 / constrained_intra=0 / bframes=3 / b_pyramid=2 / b_adapt=1 / b_bias=0 / direct=1 / weightb=1 / open_gop=0 / weightp=1 / keyint=240 / keyint_min=24 / scenecut=40 / intra_refresh=0 / rc_lookahead=10 / rc=abr / mbtree=1 / bitrate=1270 / ratetol=1.0 / qcomp=0.60 / qpmin=0 / qpmax=69 / qpstep=4 / vbv_maxrate=20000 / vbv_bufsize=25000 / nal_hrd=none / filler=0 / ip_ratio=1.40 / aq=1:1.00
Default                                  : Yes
Forced                                   : No
Color primaries                          : BT.709-5, BT.1361, IEC 61966-2-4, SMPTE RP177
Transfer characteristics                 : BT.709-5, BT.1361
Matrix coefficients                      : BT.709-5, BT.1361, IEC 61966-2-4 709, SMPTE RP177

Audio #1
ID                                       : 2
Format                                   : AC-3
Format/Info                              : Audio Coding 3
Mode extension                           : CM (complete main)
Codec ID                                 : A_AC3
Duration                                 : 1h 36mn
Bit rate mode                            : Constant
Bit rate                                 : 448 Kbps
Channel(s)                               : 6 channels
Channel positions                        : Front: L C R, Side: L R, LFE
Sampling rate                            : 48.0 KHz
Bit depth                                : 16 bits
Compression mode                         : Lossy
Delay relative to video                  : 1mn 5s
Stream size                              : 311 MiB (21%)
Language                                 : Italian
Default                                  : Yes
Forced                                   : No

Audio #2
ID                                       : 3
Format                                   : AC-3
Format/Info                              : Audio Coding 3
Mode extension                           : CM (complete main)
Codec ID                                 : A_AC3
Duration                                 : 1h 36mn
Bit rate mode                            : Constant
Bit rate                                 : 448 Kbps
Channel(s)                               : 6 channels
Channel positions                        : Front: L C R, Side: L R, LFE
Sampling rate                            : 48.0 KHz
Bit depth                                : 16 bits
Compression mode                         : Lossy
Delay relative to video                  : 1mn 5s
Stream size                              : 311 MiB (21%)
Language                                 : English
Default                                  : No
Forced                                   : No

Text #1
ID                                       : 4
Format                                   : VobSub
Codec ID                                 : S_VOBSUB
Codec ID/Info                            : The same subtitle format used on DVDs
Language                                 : Italian
Default                                  : No
Forced                                   : No

Text #2
ID                                       : 5
Format                                   : VobSub
Codec ID                                 : S_VOBSUB
Codec ID/Info                            : The same subtitle format used on DVDs
Language                                 : Italian
Default                                  : No
Forced                                   : No

Menu
00:00:00.000                             : :Capitolo 01
00:07:39.041                             : :Capitolo 02
00:15:22.958                             : :Capitolo 03
00:24:56.041                             : :Capitolo 04
00:32:19.458                             : :Capitolo 05
00:39:55.416                             : :Capitolo 06
00:47:53.583                             : :Capitolo 07
00:55:40.375                             : :Capitolo 08
01:04:00.083                             : :Capitolo 09
01:11:56.375                             : :Capitolo 10
01:19:03.333                             : :Capitolo 11
01:24:57.083                             : :Capitolo 12



[/spoiler]

[/color][/b][/center]

Files list

- Il luogo delle ombre - Odd Thomas (2013).H264.ita.eng.sub.ita.iCV-MIRCrew.mkv File size : 1.46 GB

Disqus