Chat
Users Online
+ 14 Guests online in the last 24 hours.

Welcome to our newest member, Aclofova
Ads
Torrent name: Ant-Man.2015.BRRip.480p.x264.AAC-VYTO [P2PDL]
File size: 446.34 MB
Seeds: 41
Leechs: 17
Categories: Movies SD
Torrent hash: a0f19aa9c0a872addb27db968722446ba296f403
Social Share:
Uploader: VYTO
Verified torrent:
    - udp://tracker.coppersurfer.tk:6969/announce
    - udp://tracker.openbittorrent.com:80/announce
    - udp://tracker.istole.it:80/announce
    - http://tracker.pow7.com/announce
    - udp://9.rarbg.com:2710/announce
    - http://tracker.aletorrenty.pl:2710/announce
    - udp://9.rarbg.me:2710/announce
    - http://10.rarbg.com:80/announce
    - udp://exodus.desync.com:6969/announce
    - udp://open.demonii.com:1337/announce
    - udp://tracker.publicbt.com:80/announce
    - http://ipv4.tracker.harry.lu:80/announce
    - udp://tracker.leechers-paradise.org:6969/announce
    - udp://tracker.glotorrents.com:6969/announce
    - udp://inferno.demonoid.ooo:3392/announce
Download Ant-Man.2015.BRRip.480p.x264.AAC-VYTO [P2PDL]
Download .torrent   Magnet Link
Torrent detail

Ant-Man.2015.BRRip.480p.x264.AAC-VYTO [P2PDL]

Ant-Man.2015.BRRip.480p.x264.AAC-VYTO


Genre: Action, Adventure, Sci-Fi   
http://www.imdb.com/title/tt0478970/


General
Format                         : MPEG-4
File size                      : 438 MiB
Duration                       : 1h 57mn
Overall bit rate               : 522 Kbps

Video
Format                         : AVC
Bit rate                       : 487 Kbps
Width                          : 720 pixels
Height                         : 384 pixels
Display aspect ratio           : 1.85:1
Frame rate mode                : Constant
Frame rate                     : 23.976 fps
Bit depth                      : 8 bits
Stream size                    : 408 MiB (93%)
Writing library                : x264

Audio
Format                         : AAC
Bit rate mode                  : Variable
Bit rate                       : 32.0 Kbps
Channel(s)                     : 2 channels
Channel positions              : Front: L R
Sampling rate                  : 48.0 KHz
Stream size                    : 26.8 MiB (6%)
Language                       : English

Subtitle                       : Yes (English)

jPDJhWw.png HFxI8oS5.png ELkS7P.png O2qrKe0y.png adxhj5LRF1.png eKqI9gduc.png DnHd52W8C.png eYlmI.png

Files list

- Ant-Man.2015.BRRip.480p.x264.AAC-VYTO.mp4 File size : 437.51 MB
- Ant-Man.2015.BRRip.480p.x264.AAC-VYTO.nfo File size : 2.06 KB
- Ant-Man.2015.BRRip.480p.x264.AAC-VYTO.srt File size : 132.24 KB
- Sample.mp4 File size : 8.66 MB
- Torrent downloaded from demonoid.pw.txt File size : 46 B
- Torrent downloaded from p2pdl.com.txt File size : 33 B
- VYTO.png File size : 39.3 KB

Disqus