Chat
Users Online
+ 11 Guests online in the last 24 hours.

Welcome to our newest member, ResZefsiteta
Ads
Torrent name: 2012 (2009) 1080p BluRay x264 [Dual Audio] [Org DD5.1] [Hindi + English]~{Dr_sakismit-DSTG}~
File size: 3.57 GB
Seeds: 11
Leechs: 44
Categories: Apps
Torrent hash: 92f778e13e86e9dcc3ac529360fef94df393906a
Social Share:
Uploader: Dragon786
Verified torrent:
    - udp://tracker.opentrackr.org:1337/announce
    - udp://tracker.zer0day.to:1337/announce
    - udp://tracker.coppersurfer.tk:6969/announce
    - udp://tracker.ilibr.org:6969/announce
    - udp://tracker.ilibr.org:80/announce
    - udp://ipv4.tracker.harry.lu:80/announce
    - udp://p4p.arenabg.com:1337/announce
    - udp://p4p.arenabg.ch:1337/announce
    - udp://eddie4.nl:6969/announce
    - udp://tracker.leechers-paradise.org:6969/announce
    - udp://shadowshq.yi.org:6969/announce
    - http://retracker.gorcomnet.ru/announce
    - http://ipv4.tracker.harry.lu:80/announce
    - http://ipv4.tracker.harry.lu/announce
    - http://retracker.gorcomnet.ru:80/announce
Download 2012 (2009) 1080p BluRay x264 [Dual Audio] [Org DD5.1] [Hindi + English]~{Dr_sakismit-DSTG}~
Download .torrent   Magnet Link
Torrent detail

2012 (2009) 1080p BluRay x264 [Dual Audio] [Org DD5.1] [Hindi + English]~{Dr_sakismit-DSTG}~

Source: Bluray @ Dr_Sakismit (Dragon Sakismit Torrent Group)

2012 (2009) 1080p BluRay x264 [Dual Audio] [Org DD5.1] [Hindi + English]~{Dr_sakismit-DSTG}~

A frustrated writer struggles to keep his family alive when a series of global catastrophes threatens to annihilate mankind.

General

Complete name : 2012 (2009) 1080p BluRay x264 [Dual Audio] [Org DD5.1] [Hindi + English]~{Dr_sakismit-DSTG}~.mkv
Format : Matroska
Format version : Version 4 / Version 2
File size : 3.53 GiB
Duration : 2 h 37 min
Overall bit rate mode : Variable
Overall bit rate : 3 201 kb/s
Movie name : 2012 (2009) 1080p BluRay x264 [Dual Audio] [Org DD5.1] [Hindi + English]~{Dr_sakismit-DSTG}~
Video
ID : 1
Format : AVC
Format/Info : Advanced Video Codec
Format profile : [email protected]
Format settings, CABAC : Yes
Format settings, ReFrames : 4 frames
Codec ID : V_MPEG4/ISO/AVC
Duration : 2 h 37 min
Bit rate mode : Variable
Bit rate : 2 274 kb/s
Maximum bit rate : 40.0 Mb/s
Width : 1 920 pixels
Height : 800 pixels
Display aspect ratio : 2.40:1
Frame rate mode : Constant
Frame rate : 23.976 (24000/1001) FPS
Color space : YUV
Chroma subsampling : 4:2:0
Bit depth : 8 bits
Scan type : Progressive
Bits/(Pixel*Frame) : 0.062
Stream size : 2.51 GiB (71%)
Title : 2012 (2009) 1080p BluRay x264 [Dual Audio] [Org DD5.1] [Hindi + English]~{Dr_sakismit-DSTG}~
Default : Yes
Forced : No
Color range : Limited
Audio #1
ID : 2
Format : AC-3
Format/Info : Audio Coding 3
Mode extension : CM (complete main)
Format settings, Endianness : Big
Codec ID : A_AC3
Duration : 2 h 37 min
Bit rate mode : Constant
Bit rate : 448 kb/s
Channel(s) : 6 channels
Channel positions : Front: L C R, Side: L R, LFE
Sampling rate : 48.0 kHz
Frame rate : 31.250 FPS (1536 spf)
Bit depth : 16 bits
Compression mode : Lossy
Delay relative to video : 78 ms
Stream size : 506 MiB (14%)
Title : ~{Dr_sakismit-DSTG}~
Language : English
Default : Yes
Forced : No
Audio #2
ID : 3
Format : AC-3
Format/Info : Audio Coding 3
Mode extension : CM (complete main)
Format settings, Endianness : Big
Codec ID : A_AC3
Duration : 2 h 37 min
Bit rate mode : Constant
Bit rate : 448 kb/s
Channel(s) : 6 channels
Channel positions : Front: L C R, Side: L R, LFE
Sampling rate : 48.0 kHz
Frame rate : 31.250 FPS (1536 spf)
Bit depth : 16 bits
Compression mode : Lossy
Stream size : 506 MiB (14%)
Title : Org 5.1 ~{Dr_sakismit-DSTG}~
Language : Hindi
Default : No
Forced : No
Text #1
ID : 4
Format : PGS
Muxing mode : zlib
Codec ID : S_HDMV/PGS
Codec ID/Info : Picture based subtitle format used on BDs/HD-DVDs
Duration : 2 h 26 min
Bit rate : 15.8 kb/s
Count of elements : 3797
Stream size : 16.5 MiB (0%)
Title : English
Language : English
Default : No
Forced : No
Text #2
ID : 5
Format : PGS
Muxing mode : zlib
Codec ID : S_HDMV/PGS
Codec ID/Info : Picture based subtitle format used on BDs/HD-DVDs
Duration : 2 h 26 min
Bit rate : 15.4 kb/s
Count of elements : 3867
Stream size : 16.1 MiB (0%)
Title : Hindi
Language : Hindi
Default : No
Forced : No
Menu
00:00:00.000 : en:00:00:00.000
00:11:54.672 : en:00:11:54.672
00:21:58.234 : en:00:21:58.234
00:28:47.601 : en:00:28:47.601
00:34:38.076 : en:00:34:38.076
00:44:48.144 : en:00:44:48.144
00:55:26.657 : en:00:55:26.657
01:05:09.405 : en:01:05:09.405
01:16:25.289 : en:01:16:25.289
01:25:02.514 : en:01:25:02.514
01:36:35.331 : en:01:36:35.331
01:46:47.234 : en:01:46:47.234
01:56:49.794 : en:01:56:49.794
02:04:53.152 : en:02:04:53.152
02:16:39.983 : en:02:16:39.983
02:23:21.593 : en:02:23:21.593

Encoded/Released By : Dr_sakismit / Dragon786

Files list

- Cover.jpg File size : 163.04 KB
- Screen Shoots/5.png File size : 553.23 KB
- Screen Shoots/6.png File size : 562.73 KB
- Screen Shoots/7.png File size : 624.38 KB
- Screen Shoots/4.png File size : 806.36 KB
- Screen Shoots/2.png File size : 981.78 KB
- Screen Shoots/8.png File size : 988.04 KB
- Screen Shoots/1.png File size : 1008.06 KB
- Screen Shoots/3.png File size : 1 MB
- Sample (1).mkv File size : 33.19 MB
- 2012 (2009) 1080p BluRay x264 [Dual Audio] [Org DD5.1] [Hindi + English]~{Dr_sakismit-DSTG}~.mkv File size : 3.53 GB

Disqus