Chat
Users Online
+ 9 Guests online in the last 24 hours.

Welcome to our newest member, Jamesmop
Ads
Torrent name: A Cry in the Night - Ore di angoscia (1956).H264.Italian.English.Ac3.sub.ita.eng.iCV-MIRCrew
File size: 902.42 MB
Seeds: 9
Leechs: 28
Categories: Movies SD
Torrent hash: f95463bd9bb252964cc6fa3b8a52acf66bb10fa8
Social Share:
Uploader: robbyrs
Verified torrent:
    - udp://tracker.coppersurfer.tk:6969/announce
    - udp://tracker.opentrackr.org:1337/announce
    - udp://tracker.leechers-paradise.org:6969/announce
    - udp://9.rarbg.com:2710/announce
    - udp://9.rarbg.to:2710/announce
    - udp://9.rarbg.me:2710/announce
    - udp://glotorrents.pw:6969/announce
    - udp://tracker.openbittorrent.com:80/announce
    - udp://tracker.pubt.net:2710/announce
Download A Cry in the Night - Ore di angoscia (1956).H264.Italian.English.Ac3.sub.ita.eng.iCV-MIRCrew
Download .torrent   Magnet Link
Torrent detail

A Cry in the Night - Ore di angoscia (1956).H264.Italian.English.Ac3.sub.ita.eng.iCV-MIRCrew

A Cry in the Night - Ore di angoscia (1956).H264.Italian.English.Ac3.sub.ita.eng.iCV-MIRCrew

[center]

[color=red][b][img]http://s23.postimg.org/b9yhws27f/0sc_Del1.png[/img]
[u]NO FOUND ONLY ORIGINAL RELEASE[/u]

[img]http://i.imgur.com/GDNQx1Z.png[/img]

My release is always in double track audio italian and Original audio
for select it use VLC or dvd player home
not use wmp

Ore di angoscia - A Cry in the Night (1956)

[img]https://extraimage.net/images/2017/04/05/a2ae393d72a22071c1632a6436188819.png[/img]

[URL=http://www.imdb.com/title/tt0049110/][IMG]http://www.userlogos.org/files/logos/Sucka/imdb_new.png[/IMG][/URL]

[img]http://i.imgur.com/fGu1rKv.png[/img]

    GENERE: Drammatico
    ANNO: 1956
    REGIA: Frank Tuttle
    SCENEGGIATURA: David Dortort
    FOTOGRAFIA: John F. Seitz
    MONTAGGIO: Folmar Blangsted
    MUSICHE: David Buttolph
    PRODUZIONE: WARNER BROS., JAGUAR
    DISTRIBUZIONE: WARNER BROS.
    PAESE: USA
    DURATA: 75 Min

[img]http://i.imgur.com/W7kBqiE.png[/img]

Edmond O'Brien, Brian Donlevy, Natalie Wood, Raymond Burr, Richard Anderson, Irene Hervey

[img]http://i.imgur.com/bFK3ggF.png[/img]

La figlia di un poliziotto si incontra di nascosto col fidanzato. Una sera viene rapita da un pazzo che la nasconde in una casa abbandonata; il fidanzato, che era con lei, viene severamente rimproverato dal padre. Deciso a partecipare alle ricerche, il giovanotto contribuisce però, col suo aiuto, alla.........

[img]http://i.imgur.com/48xHWWH.png[/img]

Owen Marks, parked at Lovers' Loop with girlfriend Liz Taggart, surprises a peeping Tom, who knocks him out and kidnaps Liz. The police leap into action when they learn the victim is a cop's daughter. Kidnapper Harold Loftus, the unhinged product of a smothering mother, makes ineffectual advances toward Liz,............... .

[img]http://i.imgur.com/K8bfNTy.png[/img]

[url=https://extraimage.net/image/2udZ][img]https://extraimage.net/images/2017/04/05/510aa6cbac1951ef64d2d5fa0cb8159d.th.png[/img][/url] [url=https://extraimage.net/image/2udK][img]https://extraimage.net/images/2017/04/05/cca6a939f00d8daff2383b626432c036.th.png[/img][/url] [url=https://extraimage.net/image/2ude][img]https://extraimage.net/images/2017/04/05/40fdf367c39c741f5d10661a6d4b0ed4.th.png[/img][/url]

[img]http://i.imgur.com/aVrMohH.png[/img]


[spoiler]
General
Unique ID                                : 213196324894431483967795006758029138493 (0xA0641E5D8946235DAB9A6C94BFF89A3D)
Complete name                            : Ore di angoscia - A Cry in the Night (1956).H264.ita.eng.sub.ita.iCV-MIRCrew.mkv
Format                                   : Matroska
Format version                           : Version 2
File size                                : 902 MiB
Duration                                 : 1h 15mn
Overall bit rate                         : 1 672 Kbps
Movie name                               : Ore di angoscia.Title1
Encoded date                             : UTC 2017-04-02 07:00:08
Writing application                      : DVDFab 9.1.5.7
Writing library                          : libebml v0.7.8 + libmatroska v0.8.1

Video
ID                                       : 1
Format                                   : AVC
Format/Info                              : Advanced Video Codec
Format profile                           : [email protected]
Format settings, CABAC                   : Yes
Format settings, ReFrames                : 2 frames
Codec ID                                 : V_MPEG4/ISO/AVC
Duration                                 : 1h 15mn
Bit rate                                 : 1 254 Kbps
Width                                    : 720 pixels
Height                                   : 404 pixels
Display aspect ratio                     : 16:9
Frame rate                               : 23.976 fps
Color space                              : YUV
Chroma subsampling                       : 4:2:0
Bit depth                                : 8 bits
Scan type                                : Progressive
Bits/(Pixel*Frame)                       : 0.180
Stream size                              : 677 MiB (75%)
Writing library                          : x264 core
Default                                  : Yes
Forced                                   : No
Color primaries                          : BT.601-6 525, BT.1358 525, BT.1700 NTSC, SMPTE 170M
Transfer characteristics                 : BT.709-5, BT.1361
Matrix coefficients                      : BT.601-6 525, BT.1358 525, BT.1700 NTSC, SMPTE 170M

Audio #1
ID                                       : 2
Format                                   : AC-3
Format/Info                              : Audio Coding 3
Mode extension                           : CM (complete main)
Codec ID                                 : A_AC3
Duration                                 : 1h 15mn
Bit rate mode                            : Constant
Bit rate                                 : 192 Kbps
Channel(s)                               : 2 channels
Channel positions                        : Front: L R
Sampling rate                            : 48.0 KHz
Bit depth                                : 16 bits
Compression mode                         : Lossy
Stream size                              : 104 MiB (11%)
Language                                 : Italian
Default                                  : Yes
Forced                                   : No

Audio #2
ID                                       : 3
Format                                   : AC-3
Format/Info                              : Audio Coding 3
Mode extension                           : CM (complete main)
Codec ID                                 : A_AC3
Duration                                 : 1h 15mn
Bit rate mode                            : Constant
Bit rate                                 : 192 Kbps
Channel(s)                               : 2 channels
Channel positions                        : Front: L R
Sampling rate                            : 48.0 KHz
Bit depth                                : 16 bits
Compression mode                         : Lossy
Stream size                              : 104 MiB (11%)
Language                                 : English
Default                                  : No
Forced                                   : No

Text
ID                                       : 4
Format                                   : VobSub
Codec ID                                 : S_VOBSUB
Codec ID/Info                            : The same subtitle format used on DVDs
Language                                 : Italian
Default                                  : Yes
Forced                                   : No

Menu
00:00:00.000                             : en:(01)00:00:00:000
00:06:43.000                             : en:(02)00:06:43:000
00:12:54.000                             : en:(03)00:12:54:000
00:15:00.000                             : en:(04)00:15:00:000
00:19:59.500                             : en:(05)00:19:59:500
00:25:07.000                             : en:(06)00:25:07:000
00:28:36.500                             : en:(07)00:28:36:500
00:32:19.500                             : en:(08)00:32:19:500
00:38:42.000                             : en:(09)00:38:42:000
00:44:30.500                             : en:(10)00:44:30:500
00:49:30.500                             : en:(11)00:49:30:500
00:56:40.500                             : en:(12)00:56:40:500
01:00:23.500                             : en:(13)01:00:23:500
01:04:36.000                             : en:(14)01:04:36:000
01:07:37.000                             : en:(15)01:07:37:000
01:10:29.000                             : en:(16)01:10:29:000




[/spoiler]

[/color][/b][/center]

Files list

- Ore di angoscia - A Cry in the Night (1956).H264.ita.eng.sub.ita.iCV-MIRCrew.mkv File size : 902.42 MB

Disqus