Chat
Users Online
+ 10 Guests online in the last 24 hours.

Welcome to our newest member, AbbaLeWer
Ads
Torrent name: Lion - La strada verso casa (2016).H264.Italian.English.Ac3.5.1.sub.ita.iCV-MIRCrew
File size: 1.81 GB
Seeds: 5
Leechs: 182
Categories: Movies SD
Torrent hash: 88b9c96e93a42719fe71dda1da8588b7342f8b41
Social Share:
Uploader: robbyrs
Verified torrent:
    - udp://tracker.coppersurfer.tk:6969/announce
    - udp://tracker.opentrackr.org:1337/announce
    - udp://tracker.leechers-paradise.org:6969/announce
    - udp://9.rarbg.com:2710/announce
    - udp://9.rarbg.to:2710/announce
    - udp://9.rarbg.me:2710/announce
    - udp://glotorrents.pw:6969/announce
    - udp://tracker.openbittorrent.com:80/announce
    - udp://tracker.pubt.net:2710/announce
Download Lion - La strada verso casa (2016).H264.Italian.English.Ac3.5.1.sub.ita.iCV-MIRCrew
Download .torrent   Magnet Link
Torrent detail

Lion - La strada verso casa (2016).H264.Italian.English.Ac3.5.1.sub.ita.iCV-MIRCrew

Lion - La strada verso casa (2016).H264.Italian.English.Ac3.5.1.sub.ita.iCV-MIRCrew

[center]

[color=red][b][img]http://s23.postimg.org/b9yhws27f/0sc_Del1.png[/img]
[u]NO FOUND ONLY ORIGINAL RELEASE[/u]

[img]http://i.imgur.com/GDNQx1Z.png[/img]

My release is always in double track audio italian and Original audio
for select it use VLC or dvd player home
not use wmp

Lion - La strada verso casa (2016)

[img]https://extraimage.net/images/2017/04/06/b096ae03acf007854ba8635c8e72863c.png[/img]

[URL=http://www.imdb.com/title/tt3741834/][IMG]http://www.userlogos.org/files/logos/Sucka/imdb_new.png[/IMG][/URL]

[img]http://i.imgur.com/fGu1rKv.png[/img]

2017 - Premio Oscar

    Candidatura per il Miglior film
    Candidatura per il Miglior attore non protagonista a Dev Patel
    Candidatura per la Miglior attrice non protagonista a Nicole Kidman
    Candidatura per la Miglior sceneggiatura non originale a Luke Davies
    Candidatura per la Miglior fotografia a Greig Fraser
    Candidatura per la Miglior colonna sonora a Dustin O'Halloran e Hauschka

2017 - Golden Globe

    Candidatura per il Miglior film drammatico
    Candidatura per il Miglior attore non protagonista a Dev Patel
    Candidatura per la Migliore attrice non protagonista a Nicole Kidman
    Candidatura per la Migliore colonna sonora originale a Volker Bertelmann, Dustin O'Halloran

2017 - Premio BAFTA

Titolo originale     Lion
Lingua originale     inglese, hindi, bengali
Paese di produzione     Australia, Stati Uniti d'America, Regno Unito
Anno     2016
Durata     129 min
Genere     drammatico
Regia     Garth Davis
Soggetto     Saroo Brierley, Larry Buttrose (memorie)
Sceneggiatura     Luke Davies
Produttore     Iain Canning, Angie Fielder, Emile Sherman
Produttore esecutivo     Andrew Fraser, Daniel Levin, Andrew Mackie, Shahen Mekertichian, Richard Payten, Harvey Weinstein
Casa di produzione     See-Saw Films, Aquarius Films, Screen Australia, Sunstar Entertainment, The Weinstein Company
Distribuzione (Italia)     Eagle Pictures
Fotografia     Greig Fraser
Montaggio     Alexandre de Franceschi
Musiche     Volker Bertelmann, Dustin O'Halloran

[img]http://i.imgur.com/W7kBqiE.png[/img]


    Dev Patel: Saroo Brierley
    Nicole Kidman: Sue Brierley
    Rooney Mara: Lucy
    David Wenham: John Brierley
    Sachin Joab: Bharat
    Pallavi Sharda: Prama
    Emilie Cocquerel: Annika
    Arka Das: Sami
    Abhishek Bharate: Guddu Khan
    Sunny Pawar: Saroo bambino
    Divian Ladwa: Mantosh Brierley
    Priyanka Bose: Kamla Munshi
    Deepti Naval: Saroj Sood
    Tannishtha Chatterjee: Noor
    Rita Boy: Amita
    Nawazuddin Siddiqui: Rawa

[img]http://i.imgur.com/bFK3ggF.png[/img]

India centrale, fine anni Ottanta. All'età di quattro anni, Saroo, ultimogenito di una famiglia molto povera, chiede di seguire suo fratello maggiore Guddu al lavoro. In una stazione non distante dal loro villaggio natale, Saroo viene lasciato per qualche ora su una panchina, e quando si sveglia non vede nessuno attorno a sé. Mentre cerca il fratello, il bambino sale erroneamente su un treno deserto che non fa sosta e che lo conduce a Calcutta...............

[img]http://i.imgur.com/48xHWWH.png[/img]

A five-year-old Indian boy gets lost on the streets of Calcutta, thousands of kilometers from home. He survives many challenges before being adopted by a couple in Australia; 25 years later, he sets out to find his lost family.

[img]http://i.imgur.com/K8bfNTy.png[/img]

[url=https://extraimage.net/image/2uvX][img]https://extraimage.net/images/2017/04/06/1e142fa5f73c7fbca1254b672e7a91b9.th.png[/img][/url] [url=https://extraimage.net/image/2uvP][img]https://extraimage.net/images/2017/04/06/95b1d27beee14ed3692376018f5c95ad.th.png[/img][/url] [url=https://extraimage.net/image/2uvg][img]https://extraimage.net/images/2017/04/06/07f3d60ef775e98ae928295993577504.th.png[/img][/url] [url=https://extraimage.net/image/2uv5][img]https://extraimage.net/images/2017/04/06/57070a64cb07aa862de8f2ab13ea377b.th.png[/img][/url]

[img]http://i.imgur.com/aVrMohH.png[/img]


[spoiler]
General
Unique ID                                : 181286965495669192585579973947434812463 (0x8862997B4A7B3C2E88A5CE6D8C59442F)
Complete name                            : Lion - La strada verso casa (2016).H264.ita.eng.sub.ita.iCV-MIRCrew.mkv
Format                                   : Matroska
Format version                           : Version 2
File size                                : 1.81 GiB
Duration                                 : 1h 58mn
Overall bit rate                         : 2 187 Kbps
Movie name                               : VISIT www.icv-crew.org
Encoded date                             : UTC 2017-04-05 16:36:05
Writing application                      : mkvmerge v5.4.0 ('Piper') built on Mar 10 2012 13:34:39
Writing library                          : Lavf54.63.100
COPYRIGHT                                : robbyrs

Video
ID                                       : 1
Format                                   : AVC
Format/Info                              : Advanced Video Codec
Format profile                           : [email protected]
Format settings, CABAC                   : Yes
Format settings, ReFrames                : 2 frames
Muxing mode                              : Header stripping
Codec ID                                 : V_MPEG4/ISO/AVC
Duration                                 : 1h 58mn
Bit rate                                 : 1 290 Kbps
Width                                    : 688 pixels
Height                                   : 288 pixels
Display aspect ratio                     : 2.40:1
Original display aspect ratio            : 2.40:1
Frame rate mode                          : Variable
Frame rate                               : 24.000 fps
Color space                              : YUV
Chroma subsampling                       : 4:2:0
Bit depth                                : 8 bits
Scan type                                : Progressive
Bits/(Pixel*Frame)                       : 0.271
Stream size                              : 1.03 GiB (57%)
Title                                    : Lion - La strada verso casa (2016).H264.ita.eng.sub.ita.eng.iCV-MIRCrew
Writing library                          : x264 core 130 r2273
Encoding settings                        : cabac=1 / ref=2 / deblock=1:0:0 / analyse=0x1:0x131 / me=hex / subme=7 / psy=1 / psy_rd=1.00:0.00 / mixed_ref=0 / me_range=16 / chroma_me=1 / trellis=1 / 8x8dct=0 / cqm=0 / deadzone=21,11 / fast_pskip=1 / chroma_qp_offset=-2 / threads=12 / lookahead_threads=2 / sliced_threads=0 / nr=0 / decimate=1 / interlaced=0 / bluray_compat=0 / constrained_intra=0 / bframes=3 / b_pyramid=0 / b_adapt=1 / b_bias=0 / direct=3 / weightb=1 / open_gop=0 / weightp=2 / keyint=240 / keyint_min=24 / scenecut=40 / intra_refresh=0 / rc_lookahead=40 / rc=2pass / mbtree=1 / bitrate=1290 / ratetol=1.0 / qcomp=0.60 / qpmin=10 / qpmax=69 / qpstep=4 / cplxblur=20.0 / qblur=0.5 / vbv_maxrate=24000 / vbv_bufsize=24000 / nal_hrd=none / ip_ratio=1.40 / aq=1:1.00
Language                                 : Italian
Default                                  : Yes
Forced                                   : No
DURATION                                 : 01:58:35.500000000
NUMBER_OF_FRAMES                         : 170772
NUMBER_OF_BYTES                          : 3949833818
_STATISTICS_WRITING_APP                  : mkvmerge v8.3.0 ('Over the Horizon') 64bit
_STATISTICS_WRITING_DATE_UTC             : 2017-03-31 19:00:29
_STATISTICS_TAGS                         : BPS DURATION NUMBER_OF_FRAMES NUMBER_OF_BYTES

Audio #1
ID                                       : 2
Format                                   : AC-3
Format/Info                              : Audio Coding 3
Mode extension                           : CM (complete main)
Muxing mode                              : Header stripping
Codec ID                                 : A_AC3
Duration                                 : 1h 58mn
Bit rate mode                            : Constant
Bit rate                                 : 448 Kbps
Channel(s)                               : 6 channels
Channel positions                        : Front: L C R, Side: L R, LFE
Sampling rate                            : 48.0 KHz
Bit depth                                : 16 bits
Compression mode                         : Lossy
Delay relative to video                  : -5ms
Stream size                              : 380 MiB (20%)
Title                                    : AC3 iTA
Language                                 : Italian
Default                                  : No
Forced                                   : No
DURATION                                 : 01:58:35.584000000
NUMBER_OF_FRAMES                         : 222362
NUMBER_OF_BYTES                          : 569246720
_STATISTICS_WRITING_APP                  : mkvmerge v8.3.0 ('Over the Horizon') 64bit
_STATISTICS_WRITING_DATE_UTC             : 2017-03-31 19:00:29
_STATISTICS_TAGS                         : BPS DURATION NUMBER_OF_FRAMES NUMBER_OF_BYTES

Audio #2
ID                                       : 3
Format                                   : AC-3
Format/Info                              : Audio Coding 3
Mode extension                           : CM (complete main)
Muxing mode                              : Header stripping
Codec ID                                 : A_AC3
Duration                                 : 1h 58mn
Bit rate mode                            : Constant
Bit rate                                 : 448 Kbps
Channel(s)                               : 6 channels
Channel positions                        : Front: L C R, Side: L R, LFE
Sampling rate                            : 48.0 KHz
Bit depth                                : 16 bits
Compression mode                         : Lossy
Delay relative to video                  : -5ms
Stream size                              : 380 MiB (20%)
Title                                    : AC3 ENG
Language                                 : English
Default                                  : No
Forced                                   : No
DURATION                                 : 01:58:35.584000000
NUMBER_OF_FRAMES                         : 222362
NUMBER_OF_BYTES                          : 569246720
_STATISTICS_WRITING_APP                  : mkvmerge v8.3.0 ('Over the Horizon') 64bit
_STATISTICS_WRITING_DATE_UTC             : 2017-03-31 19:00:29
_STATISTICS_TAGS                         : BPS DURATION NUMBER_OF_FRAMES NUMBER_OF_BYTES

Text #1
ID                                       : 4
Format                                   : ASS
Codec ID                                 : S_TEXT/ASS
Codec ID/Info                            : Advanced Sub Station Alpha
Compression mode                         : Lossless
Title                                    : FORCED iTA
Language                                 : Italian
Default                                  : Yes
Forced                                   : No
DURATION                                 : 01:49:58.583000000
NUMBER_OF_FRAMES                         : 2
NUMBER_OF_BYTES                          : 39
_STATISTICS_WRITING_APP                  : mkvmerge v8.3.0 ('Over the Horizon') 64bit
_STATISTICS_WRITING_DATE_UTC             : 2017-03-31 19:00:29
_STATISTICS_TAGS                         : BPS DURATION NUMBER_OF_FRAMES NUMBER_OF_BYTES

Text #2
ID                                       : 5
Format                                   : ASS
Codec ID                                 : S_TEXT/ASS
Codec ID/Info                            : Advanced Sub Station Alpha
Compression mode                         : Lossless
Title                                    : REGULAR iTA
Language                                 : Italian
Default                                  : No
Forced                                   : No
DURATION                                 : 01:03:10.041000000
NUMBER_OF_FRAMES                         : 466
NUMBER_OF_BYTES                          : 12896
_STATISTICS_WRITING_APP                  : mkvmerge v8.3.0 ('Over the Horizon') 64bit
_STATISTICS_WRITING_DATE_UTC             : 2017-03-31 19:00:29
_STATISTICS_TAGS                         : BPS DURATION NUMBER_OF_FRAMES NUMBER_OF_BYTES

Menu
00:00:00.000                             : :00:00:00.000
00:09:00.208                             : :00:09:00.208
00:19:45.833                             : :00:19:45.833
00:29:46.833                             : :00:29:46.833
00:40:01.000                             : :00:40:01.000
00:48:48.000                             : :00:48:48.000
00:58:46.833                             : :00:58:46.833
01:09:11.417                             : :01:09:11.417
01:19:13.417                             : :01:19:13.417
01:29:16.625                             : :01:29:16.625
01:37:50.417                             : :01:37:50.417
01:48:15.000                             : :01:48:15.000


[/spoiler]

[/color][/b][/center]

Files list

- Lion - La strada verso casa (2016).H264.ita.eng.sub.ita.eng.iCV-MIRCrew.mkv File size : 1.81 GB

Disqus