Chat
Users Online
+ 11 Guests online in the last 24 hours.

Welcome to our newest member, sfRows
Ads
Torrent name: Qualcosa di nuovo (2016).H264.Italian.Ac3.5.1.sub.ita.eng.iCV-MIRCrew
File size: 1.13 GB
Seeds: 7
Leechs: 107
Categories: Movies SD
Torrent hash: a7c108c3d460b6fe98d2d8a12af0b8439e722aa3
Social Share:
Uploader: robbyrs
Verified torrent:
    - udp://tracker.coppersurfer.tk:6969/announce
    - udp://tracker.opentrackr.org:1337/announce
    - udp://tracker.leechers-paradise.org:6969/announce
    - udp://9.rarbg.com:2710/announce
    - udp://9.rarbg.to:2710/announce
    - udp://9.rarbg.me:2710/announce
    - udp://glotorrents.pw:6969/announce
    - udp://tracker.openbittorrent.com:80/announce
    - udp://tracker.pubt.net:2710/announce
Download Qualcosa di nuovo (2016).H264.Italian.Ac3.5.1.sub.ita.eng.iCV-MIRCrew
Download .torrent   Magnet Link
Torrent detail

Qualcosa di nuovo (2016).H264.Italian.Ac3.5.1.sub.ita.eng.iCV-MIRCrew

Qualcosa di nuovo (2016).H264.Italian.Ac3.5.1.sub.ita.eng.iCV-MIRCrew

[center]

[color=red][b][img]http://s23.postimg.org/b9yhws27f/0sc_Del1.png[/img]
[u]NO FOUND ONLY ORIGINAL RELEASE[/u]

[img]http://i.imgur.com/GDNQx1Z.png[/img]

My release is always in double track audio italian and Original audio
for select it use VLC or dvd player home
not use wmp

ENGLISH SUBTITLE INSIDE

Qualcosa di nuovo (2016)

[img]https://extraimage.net/images/2017/04/07/3f7faeef95c662f07b3da9f6e91e7f7d.png[/img]

[URL=http://www.imdb.com/title/tt6085308/][IMG]http://www.userlogos.org/files/logos/Sucka/imdb_new.png[/IMG][/URL]

[img]http://i.imgur.com/fGu1rKv.png[/img]

    DATA USCITA: 13 ottobre 2016
    GENERE: Commedia
    ANNO: 2016
    REGIA: Cristina Comencini
    SCENEGGIATURA: Cristina Comencini, Giulia Calenda, Paola Cortellesi
    FOTOGRAFIA: Italo Petriccione
    MONTAGGIO: Francesca Calvelli
    MUSICHE: Andrea Farri
    PRODUZIONE: Cattleya, Rai Cinema, con il contributo del MiBACT
    DISTRIBUZIONE: 01 Distribution
    PAESE: Italia
    DURATA: 93 Min

[img]http://i.imgur.com/W7kBqiE.png[/img]

Paola Cortellesi, Micaela Ramazzotti, Eduardo Valdarnini, Eleonora Danco

[img]http://i.imgur.com/bFK3ggF.png[/img]

Lucia e Maria si conoscono da sempre. Due amiche che più diverse non si può. Lucia ha chiuso col genere maschile, Maria invece non riesce proprio a farne a meno. Una sera nel suo letto capita (finalmente!) l'Uomo perfetto..............

[img]http://i.imgur.com/48xHWWH.png[/img]

Lucia and Maria are two best friends, who have known each other from the beginning of their life, but have very different tastes and behaviors. Lucia is done with men, Maria, on the ...

[img]http://i.imgur.com/K8bfNTy.png[/img]

[img]https://extraimage.net/images/2017/04/07/8404928cd2dcc1ebdf732daa4223c9e3.png[/img]
[img]https://extraimage.net/images/2017/04/07/e91948c2b4d64f9c89bf039125cad7c7.png[/img]
[img]https://extraimage.net/images/2017/04/07/80cc76c5a9b8aa28c58bce6fe706b023.png[/img]
[img]https://extraimage.net/images/2017/04/07/b626e992b69c1cb0b6622a99f91a66a0.png[/img]


[img]http://i.imgur.com/aVrMohH.png[/img]


[spoiler]
General
Unique ID                                : 156406872313919444684049835627500277240 (0x75AADE2E05831240DB36C17936000DF8)
Complete name                            : Qualcosa di nuovo (2016).H264.ita.sub.ita.eng.iCV-MIRCrew.mkv
Format                                   : Matroska
Format version                           : Version 2
File size                                : 1.13 GiB
Duration                                 : 1h 33mn
Overall bit rate                         : 1 741 Kbps
Movie name                               : www.icv-crew.org
Encoded date                             : UTC 2017-04-06 17:23:23
Writing application                      : Lavf54.63.100
Writing library                          : Lavf54.63.100
COPYRIGHT                                : robbyrs

Video
ID                                       : 1
Format                                   : AVC
Format/Info                              : Advanced Video Codec
Format profile                           : [email protected]
Format settings, CABAC                   : Yes
Format settings, ReFrames                : 2 frames
Codec ID                                 : V_MPEG4/ISO/AVC
Duration                                 : 1h 33mn
Bit rate                                 : 1 290 Kbps
Width                                    : 720 pixels
Height                                   : 300 pixels
Display aspect ratio                     : 2.40:1
Frame rate mode                          : Variable
Frame rate                               : 23.976 fps
Color space                              : YUV
Chroma subsampling                       : 4:2:0
Bit depth                                : 8 bits
Scan type                                : Progressive
Bits/(Pixel*Frame)                       : 0.249
Stream size                              : 838 MiB (72%)
Writing library                          : x264 core 130 r2273
Encoding settings                        : cabac=1 / ref=2 / deblock=1:0:0 / analyse=0x1:0x131 / me=hex / subme=7 / psy=1 / psy_rd=1.00:0.00 / mixed_ref=0 / me_range=16 / chroma_me=1 / trellis=1 / 8x8dct=0 / cqm=0 / deadzone=21,11 / fast_pskip=1 / chroma_qp_offset=-2 / threads=12 / lookahead_threads=2 / sliced_threads=0 / nr=0 / decimate=1 / interlaced=0 / bluray_compat=0 / constrained_intra=0 / bframes=3 / b_pyramid=0 / b_adapt=1 / b_bias=0 / direct=3 / weightb=1 / open_gop=0 / weightp=2 / keyint=230 / keyint_min=23 / scenecut=40 / intra_refresh=0 / rc_lookahead=40 / rc=2pass / mbtree=1 / bitrate=1290 / ratetol=1.0 / qcomp=0.60 / qpmin=10 / qpmax=69 / qpstep=4 / cplxblur=20.0 / qblur=0.5 / vbv_maxrate=24000 / vbv_bufsize=24000 / nal_hrd=none / ip_ratio=1.40 / aq=1:1.00
Language                                 : Italian
Default                                  : Yes
Forced                                   : No
DURATION                                 : 01:33:08.500000000
NUMBER_OF_FRAMES                         : 133990
NUMBER_OF_BYTES                          : 6814297040
_STATISTICS_WRITING_APP                  : mkvmerge v8.7.0 ('All of the above') 64bit
_STATISTICS_WRITING_DATE_UTC             : 2017-03-17 07:22:00
_STATISTICS_TAGS                         : BPS DURATION NUMBER_OF_FRAMES NUMBER_OF_BYTES

Audio
ID                                       : 2
Format                                   : AC-3
Format/Info                              : Audio Coding 3
Mode extension                           : CM (complete main)
Codec ID                                 : A_AC3
Duration                                 : 1h 33mn
Bit rate mode                            : Constant
Bit rate                                 : 448 Kbps
Channel(s)                               : 2 channels
Channel positions                        : Front: L R
Sampling rate                            : 48.0 KHz
Bit depth                                : 16 bits
Compression mode                         : Lossy
Delay relative to video                  : 1mn 5s
Stream size                              : 298 MiB (26%)
Title                                    : AC3 ITA
Language                                 : Italian
Default                                  : No
Forced                                   : No
DURATION                                 : 01:33:03.008000000
NUMBER_OF_FRAMES                         : 174469
NUMBER_OF_BYTES                          : 446640640
_STATISTICS_WRITING_APP                  : mkvmerge v8.7.0 ('All of the above') 64bit
_STATISTICS_WRITING_DATE_UTC             : 2017-03-17 07:22:00
_STATISTICS_TAGS                         : BPS DURATION NUMBER_OF_FRAMES NUMBER_OF_BYTES

Text #1
ID                                       : 3
Format                                   : ASS
Codec ID                                 : S_TEXT/ASS
Codec ID/Info                            : Advanced Sub Station Alpha
Compression mode                         : Lossless
Title                                    : Regular
Language                                 : Italian
Default                                  : No
Forced                                   : No
DURATION                                 : 01:28:56.457000000
NUMBER_OF_FRAMES                         : 1224
NUMBER_OF_BYTES                          : 49209
_STATISTICS_WRITING_APP                  : mkvmerge v8.7.0 ('All of the above') 64bit
_STATISTICS_WRITING_DATE_UTC             : 2017-03-17 07:22:00
_STATISTICS_TAGS                         : BPS DURATION NUMBER_OF_FRAMES NUMBER_OF_BYTES

Text #2
ID                                       : 4
Format                                   : ASS
Codec ID                                 : S_TEXT/ASS
Codec ID/Info                            : Advanced Sub Station Alpha
Compression mode                         : Lossless
Title                                    : Regular
Language                                 : English
Default                                  : No
Forced                                   : No
DURATION                                 : 01:28:39.689000000
NUMBER_OF_FRAMES                         : 1288
NUMBER_OF_BYTES                          : 43436
_STATISTICS_WRITING_APP                  : mkvmerge v8.7.0 ('All of the above') 64bit
_STATISTICS_WRITING_DATE_UTC             : 2017-03-17 07:22:00
_STATISTICS_TAGS                         : BPS DURATION NUMBER_OF_FRAMES NUMBER_OF_BYTES

Menu
00:00:00.000                             : :00:00:00.000
00:07:05.342                             : :00:07:05.342
00:14:28.201                             : :00:14:28.201
00:20:13.838                             : :00:20:13.838
00:29:27.099                             : :00:29:27.099
00:39:02.590                             : :00:39:02.590
00:50:56.804                             : :00:50:56.804
00:59:52.756                             : :00:59:52.756
01:08:53.129                             : :01:08:53.129
01:16:19.950                             : :01:16:19.950
01:23:27.706                             : :01:23:27.706


[/spoiler]

[/color][/b][/center]

Files list

- Qualcosa di nuovo (2016).H264.ita.sub.ita.eng.iCV-MIRCrew.mkv File size : 1.13 GB

Disqus