Chat
Users Online
+ 20 Guests online in the last 24 hours.

Welcome to our newest member, istanbul escort 12Keddy
Ads
Torrent name: 3 Generations - Una famiglia quasi perfetta (2015).H264.Italian.English.Ac3.5.1.sub.ita.eng.iCV-MIRC
File size: 1.36 GB
Seeds: 3
Leechs: 11
Categories: Movies SD
Torrent hash: 35681f6c856d3242be0b68beef96f42aa6c2f010
Social Share:
Uploader: robbyrs
Verified torrent:
    - udp://tracker.coppersurfer.tk:6969/announce
    - udp://tracker.opentrackr.org:1337/announce
    - udp://tracker.leechers-paradise.org:6969/announce
    - udp://9.rarbg.com:2710/announce
    - udp://9.rarbg.to:2710/announce
    - udp://9.rarbg.me:2710/announce
    - udp://glotorrents.pw:6969/announce
    - udp://tracker.openbittorrent.com:80/announce
    - udp://tracker.pubt.net:2710/announce
Download 3 Generations - Una famiglia quasi perfetta (2015).H264.Italian.English.Ac3.5.1.sub.ita.eng.iCV-MIRC
Download .torrent   Magnet Link
Torrent detail

3 Generations - Una famiglia quasi perfetta (2015).H264.Italian.English.Ac3.5.1.sub.ita.eng.iCV-MIRC

3 Generations - Una famiglia quasi perfetta (2015).H264.Italian.English.Ac3.5.1.sub.ita.eng.iCV-MIRCrew

[center]

[color=red][b][img]http://s23.postimg.org/b9yhws27f/0sc_Del1.png[/img]
[u]NO FOUND ONLY ORIGINAL RELEASE[/u]

[img]http://i.imgur.com/GDNQx1Z.png[/img]

My release is always in double track audio italian and Original audio
for select it use VLC or dvd player home
not use wmp

3 Generations - Una famiglia quasi perfetta (2015)

[img]https://extraimage.net/images/2017/04/07/b246b5cfb2205086a1c7f45d0b373eef.png[/img]

[URL=http://www.imdb.com/title/tt4158624/][IMG]http://www.userlogos.org/files/logos/Sucka/imdb_new.png[/IMG][/URL]

[img]http://i.imgur.com/fGu1rKv.png[/img]

    DATA USCITA: 24 novembre 2016
    GENERE: Commedia, Drammatico
    ANNO: 2015
    REGIA: Gaby Dellal
    SCENEGGIATURA: Nikole Beckwith
    FOTOGRAFIA: David Johnson
    MONTAGGIO: Joe Landauer
    MUSICHE: Michael Brook
    PRODUZIONE: Big Beach Films, IM Global, InFilm Productions
    DISTRIBUZIONE: Videa
    PAESE: USA
    DURATA: 87 Min

[img]http://i.imgur.com/W7kBqiE.png[/img]

Elle Fanning, Naomi Watts, Susan Sarandon, Tate Donovan, Maria Dizzia, Sam Trammell, Linda Emond

[img]http://i.imgur.com/bFK3ggF.png[/img]

3 GENERATIONS - Una famiglia quasi perfetta, racconta la storia di tre donne della stessa famiglia newyorkese, appartenenti a tre generazioni differenti e di come la trasformazione di una di loro influisca sulle altre. Ray (Elle Fanning) è una ragazza adolescente che sente il desiderio di diventare un ragazzo. ............

[img]http://i.imgur.com/48xHWWH.png[/img]

After Ray decides to transition from female to male, Ray's mother, Maggie, must come to terms with the decision while tracking down Ray's biological father to get his legal consent.

[img]http://i.imgur.com/K8bfNTy.png[/img]

[img]https://extraimage.net/images/2017/04/07/6a8978c42d789a7126de7d7220a86911.png[/img]
[img]https://extraimage.net/images/2017/04/07/142521645a2ac89afd776486ba0526f5.png[/img]
[img]https://extraimage.net/images/2017/04/07/cb98085b88cd83fa586cdab0b8adef5c.png[/img]
[img]https://extraimage.net/images/2017/04/07/7b6394ac8f5c42bb397eed80f4158341.png[/img]


[img]http://i.imgur.com/aVrMohH.png[/img]


[spoiler]
General
Unique ID                                : 222803491124186401537594049055682372518 (0xA79E643B1D319280A71EC0F1F27EA3A6)
Complete name                            : \NASD164A0Download_YJRHA~Sadmin3OW3JX~13 Generations - Una famiglia quasi perfetta (2015).H264.ita.eng.sub.ita.eng.iCV-MIRCrew.mkv
Format                                   : Matroska
Format version                           : Version 2
File size                                : 1.36 GiB
Duration                                 : 1h 28mn
Overall bit rate                         : 2 197 Kbps
Movie name                               : 3 Generations - Una famiglia quasi perfetta (2015).H264.ita.eng.sub.ita.eng.iCV-MIRCrew
Encoded date                             : UTC 2017-04-05 15:58:28
Writing application                      : DVDFab 9.1.5.7
Writing library                          : libebml v0.7.8 + libmatroska v0.8.1

Video
ID                                       : 1
Format                                   : AVC
Format/Info                              : Advanced Video Codec
Format profile                           : [email protected]
Format settings, CABAC                   : Yes
Format settings, ReFrames                : 2 frames
Codec ID                                 : V_MPEG4/ISO/AVC
Duration                                 : 1h 28mn
Bit rate                                 : 1 257 Kbps
Width                                    : 720 pixels
Height                                   : 388 pixels
Display aspect ratio                     : 1.856
Frame rate                               : 25.000 fps
Color space                              : YUV
Chroma subsampling                       : 4:2:0
Bit depth                                : 8 bits
Scan type                                : Progressive
Bits/(Pixel*Frame)                       : 0.180
Stream size                              : 799 MiB (57%)
Writing library                          : x264 core
Default                                  : Yes
Forced                                   : No
Color primaries                          : BT.601-6 525, BT.1358 525, BT.1700 NTSC, SMPTE 170M
Transfer characteristics                 : BT.709-5, BT.1361
Matrix coefficients                      : BT.601-6 525, BT.1358 525, BT.1700 NTSC, SMPTE 170M

Audio #1
ID                                       : 2
Format                                   : AC-3
Format/Info                              : Audio Coding 3
Mode extension                           : CM (complete main)
Codec ID                                 : A_AC3
Duration                                 : 1h 28mn
Bit rate mode                            : Constant
Bit rate                                 : 448 Kbps
Channel(s)                               : 6 channels
Channel positions                        : Front: L C R, Side: L R, LFE
Sampling rate                            : 48.0 KHz
Bit depth                                : 16 bits
Compression mode                         : Lossy
Stream size                              : 285 MiB (20%)
Language                                 : Italian
Default                                  : Yes
Forced                                   : No

Audio #2
ID                                       : 3
Format                                   : AC-3
Format/Info                              : Audio Coding 3
Mode extension                           : CM (complete main)
Codec ID                                 : A_AC3
Duration                                 : 1h 28mn
Bit rate mode                            : Constant
Bit rate                                 : 448 Kbps
Channel(s)                               : 6 channels
Channel positions                        : Front: L C R, Side: L R, LFE
Sampling rate                            : 48.0 KHz
Bit depth                                : 16 bits
Compression mode                         : Lossy
Stream size                              : 285 MiB (20%)
Language                                 : English
Default                                  : No
Forced                                   : No

Text #1
ID                                       : 4
Format                                   : VobSub
Codec ID                                 : S_VOBSUB
Codec ID/Info                            : The same subtitle format used on DVDs
Language                                 : Italian
Default                                  : Yes
Forced                                   : No

Text #2
ID                                       : 5
Format                                   : VobSub
Codec ID                                 : S_VOBSUB
Codec ID/Info                            : The same subtitle format used on DVDs
Language                                 : Italian
Default                                  : No
Forced                                   : No

Text #3
ID                                       : 6
Format                                   : VobSub
Codec ID                                 : S_VOBSUB
Codec ID/Info                            : The same subtitle format used on DVDs
Language                                 : English
Default                                  : No
Forced                                   : No

Menu
00:00:00.000                             : en:(01)00:00:00:000
00:10:22.640                             : en:(02)00:10:22:640
00:17:37.920                             : en:(03)00:17:37:920
00:23:27.640                             : en:(04)00:23:27:640
00:31:30.920                             : en:(05)00:31:30:920
00:39:22.920                             : en:(06)00:39:22:920
00:46:14.320                             : en:(07)00:46:14:320
00:52:51.000                             : en:(08)00:52:51:000
00:58:05.360                             : en:(09)00:58:05:360
01:05:03.120                             : en:(10)01:05:03:120
01:14:43.640                             : en:(11)01:14:43:640
01:23:28.160                             : en:(12)01:23:28:160
01:28:49.680                             : en:(13)01:28:49:680



[/spoiler]

[/color][/b][/center]

Files list

- 3 Generations - Una famiglia quasi perfetta (2015).H264.ita.eng.sub.ita.eng.iCV-MIRCrew.mkv File size : 1.36 GB

Disqus