Chat
Users Online
+ 10 Guests online in the last 24 hours.

Welcome to our newest member, AbbaLeWer
Ads
Torrent name: Sing (2016).H264.Italian.English.Ac3.5.1.sub.ita.eng.iCV-MIRCrew
File size: 1.56 GB
Seeds: 6
Leechs: 79
Categories: Movies SD
Torrent hash: 47b32f91b6d5b082bd604cae852f6902900f356c
Social Share:
Uploader: robbyrs
Verified torrent:
    - udp://tracker.coppersurfer.tk:6969/announce
    - udp://tracker.opentrackr.org:1337/announce
    - udp://tracker.leechers-paradise.org:6969/announce
    - udp://9.rarbg.com:2710/announce
    - udp://9.rarbg.to:2710/announce
    - udp://9.rarbg.me:2710/announce
    - udp://glotorrents.pw:6969/announce
    - udp://tracker.openbittorrent.com:80/announce
    - udp://tracker.pubt.net:2710/announce
Download Sing (2016).H264.Italian.English.Ac3.5.1.sub.ita.eng.iCV-MIRCrew
Download .torrent   Magnet Link
Torrent detail

Sing (2016).H264.Italian.English.Ac3.5.1.sub.ita.eng.iCV-MIRCrew

Sing (2016).H264.Italian.English.Ac3.5.1.sub.ita.eng.iCV-MIRCrew

[center]

[color=green][b][img]http://extraimago.com/images/2016/07/16/oCo82IVa08d8.png[/img]
[u]NO FOUND ONLY ORIGINAL RELEASE[/u]

[img]http://i.imgur.com/GDNQx1Z.png[/img]

My release is always in double track audio italian and Original audio
for select it use VLC or dvd player home
not use wmp

Sing (2016)

[img]https://extraimage.net/images/2017/04/11/a20b1b7c5d5b594cdb8567c4167fa79d.png[/img]

[URL=http://www.imdb.com/title/tt3470600/][IMG]http://www.userlogos.org/files/logos/Sucka/imdb_new.png[/IMG][/URL]

[img]http://i.imgur.com/Q5gAZRt.png[/img]

Titolo originale     Sing
Paese di produzione     Stati Uniti
Anno     2016
Durata     110
Rapporto     1,85:1
Genere     animazione, musicale, commedia
Regia     Garth Jennings
Soggetto     Garth Jennings
Sceneggiatura     Garth Jennings
Produttore     Chris Meledandri, Janet Healy
Casa di produzione     Illumination Entertainment
Distribuzione (Italia)     Universal Pictures
Musiche     John Williams

[img]http://i.imgur.com/Jtvgw7x.png[/img]

Doppiatori originali

    Matthew McConaughey: Buster Moon
    Reese Witherspoon: Rosita
    Seth MacFarlane: Mike
    Tori Kelly: Meena
    John C. Reilly: Eddie Noodleman
    Taron Egerton: Johnny
    Scarlett Johansson: Ash
    Nick Offerman: Norman
    Garth Jennings: Miss Karen Crawly
    Leslie Jones: madre di Meena
    Jennifer Saunders: Miss Nana Noodleman
    Nick Kroll: Gunter
    Tara Strong: Nancy
    Peter Serafinowicz: Marcus
    Jay Pharoah: Nonno di Meena
    Beck Bennett: Lance
    Rhea Perlman: Judith
    Jennifer Hudson: Nana Noodleman giovane

Doppiatori italiani

    Francesco Prando: Buster Moon
    Federica De Bortoli: Rosita
    David Chevalier: Mike
    Domitilla D'Amico: Meena
    Massimiliano Alto: Eddie Noodleman
    Alessandro Campaiola: Johnny
    Chiara Gioncardi: Ash
    Roberto Stocchi: Norman
    Riccardo Scarafoni: Miss Karen Crawly
    Anna Cesareni: madre di Meena
    Rita Savagnone: Miss Nana Noodleman
    Fabrizio Vidale: Gunter
    Sara Ferranti: Nancy
    Pino Insegno: Marcus
    Paolo Macedonio: Nonno di Meena
    Andrea Mete: Lance
    Stefanella Marrama: Judith
    Marco Mete: Kip


[img]http://i.imgur.com/hL3n1m8.png[/img]

Per salvare il suo teatro dal fallimento, il koala Buster Moon indice una gara di talenti canori per racimolare quanto necessita per salvare il suo stabile. All'appello rispondono vari personaggi, con alle spalle la loro vita privata, che per un motivo o per l'altro desiderano dare il meglio di sé nella competizione canora..............

[img]http://i.imgur.com/MTp7cO6.png[/img]

In a city of humanoid animals, a hustling theater impresario's attempt to save his theater with a singing competition becomes grander than he anticipates even as its finalists' find that their lives will never be the same. ................

[img]http://i.imgur.com/6TgqSmf.png[/img]

[url=https://extraimage.net/image/2Wp3][img]https://extraimage.net/images/2017/04/11/5910f4039809b649964a7d09fa1d1098.th.png[/img][/url] [url=https://extraimage.net/image/2Wpb][img]https://extraimage.net/images/2017/04/11/68a9c3283851d163b22a360a612486a0.th.png[/img][/url] [url=https://extraimage.net/image/2Wp9][img]https://extraimage.net/images/2017/04/11/605391165e0b7299c75c4ca9079af95d.th.png[/img][/url] [url=https://extraimage.net/image/2WpM][img]https://extraimage.net/images/2017/04/11/9a435f2c19e2df3ffbeba5d1d2c4b264.th.png[/img][/url]

[img]http://i.imgur.com/t8N3Ia1.png[/img]


[spoiler]
General
Unique ID                                : 22771199372514299659010950020577859572 (0x112192CF33137F70B816C6C3641F97F4)
Complete name                            : Sing (2016).H264.ita.eng.sub.ita.eng.iCV-MIRCrew.mkv
Format                                   : Matroska
Format version                           : Version 2
File size                                : 1.56 GiB
Duration                                 : 1h 47mn
Overall bit rate                         : 2 069 Kbps
Encoded date                             : UTC 2017-04-06T20:30:24Z
Writing application                      : HandBrake 0.10.5 2016021100
Writing library                          : Lavf55.12.0

Video
ID                                       : 1
Format                                   : AVC
Format/Info                              : Advanced Video Codec
Format profile                           : [email protected]
Format settings, CABAC                   : Yes
Format settings, ReFrames                : 4 frames
Codec ID                                 : V_MPEG4/ISO/AVC
Duration                                 : 1h 47mn
Bit rate                                 : 1 290 Kbps
Width                                    : 720 pixels
Height                                   : 384 pixels
Display aspect ratio                     : 1.875
Frame rate mode                          : Variable
Frame rate                               : 23.976 fps
Color space                              : YUV
Chroma subsampling                       : 4:2:0
Bit depth                                : 8 bits
Scan type                                : Progressive
Bits/(Pixel*Frame)                       : 0.195
Stream size                              : 972 MiB (61%)
Writing library                          : x264 core 142 r2479 dd79a61
Encoding settings                        : cabac=1 / ref=1 / deblock=1:0:0 / analyse=0x1:0x111 / me=hex / subme=2 / psy=1 / psy_rd=1.00:0.00 / mixed_ref=0 / me_range=16 / chroma_me=1 / trellis=0 / 8x8dct=0 / cqm=0 / deadzone=21,11 / fast_pskip=1 / chroma_qp_offset=0 / threads=12 / lookahead_threads=3 / sliced_threads=0 / nr=0 / decimate=1 / interlaced=0 / bluray_compat=0 / constrained_intra=0 / bframes=3 / b_pyramid=2 / b_adapt=1 / b_bias=0 / direct=1 / weightb=1 / open_gop=0 / weightp=1 / keyint=240 / keyint_min=24 / scenecut=40 / intra_refresh=0 / rc_lookahead=10 / rc=abr / mbtree=1 / bitrate=1290 / ratetol=1.0 / qcomp=0.60 / qpmin=0 / qpmax=69 / qpstep=4 / vbv_maxrate=20000 / vbv_bufsize=25000 / nal_hrd=none / filler=0 / ip_ratio=1.40 / aq=1:1.00
Default                                  : Yes
Forced                                   : No
Color primaries                          : BT.709-5, BT.1361, IEC 61966-2-4, SMPTE RP177
Transfer characteristics                 : BT.709-5, BT.1361
Matrix coefficients                      : BT.709-5, BT.1361, IEC 61966-2-4 709, SMPTE RP177

Audio #1
ID                                       : 2
Format                                   : AC-3
Format/Info                              : Audio Coding 3
Mode extension                           : CM (complete main)
Codec ID                                 : A_AC3
Duration                                 : 1h 47mn
Bit rate mode                            : Constant
Bit rate                                 : 384 Kbps
Channel(s)                               : 6 channels
Channel positions                        : Front: L C R, Side: L R, LFE
Sampling rate                            : 48.0 KHz
Bit depth                                : 16 bits
Compression mode                         : Lossy
Delay relative to video                  : 1mn 5s
Stream size                              : 296 MiB (19%)
Title                                    : Surround
Language                                 : Italian
Default                                  : Yes
Forced                                   : No

Audio #2
ID                                       : 3
Format                                   : AC-3
Format/Info                              : Audio Coding 3
Mode extension                           : CM (complete main)
Codec ID                                 : A_AC3
Duration                                 : 1h 47mn
Bit rate mode                            : Constant
Bit rate                                 : 384 Kbps
Channel(s)                               : 6 channels
Channel positions                        : Front: L C R, Side: L R, LFE
Sampling rate                            : 48.0 KHz
Bit depth                                : 16 bits
Compression mode                         : Lossy
Delay relative to video                  : 1mn 5s
Stream size                              : 296 MiB (19%)
Title                                    : Surround
Language                                 : English
Default                                  : No
Forced                                   : No

Text #1
ID                                       : 4
Format                                   : ASS
Codec ID                                 : S_TEXT/ASS
Codec ID/Info                            : Advanced Sub Station Alpha
Compression mode                         : Lossless
Language                                 : Italian
Default                                  : No
Forced                                   : No

Text #2
ID                                       : 5
Format                                   : ASS
Codec ID                                 : S_TEXT/ASS
Codec ID/Info                            : Advanced Sub Station Alpha
Compression mode                         : Lossless
Language                                 : Italian
Default                                  : No
Forced                                   : No

Text #3
ID                                       : 6
Format                                   : ASS
Codec ID                                 : S_TEXT/ASS
Codec ID/Info                            : Advanced Sub Station Alpha
Compression mode                         : Lossless
Language                                 : English
Default                                  : No
Forced                                   : No

Menu
00:00:00.000                             : :00:00:00.000
00:04:29.435                             : :00:04:29.352
00:10:36.552                             : :00:10:36.469
00:14:04.760                             : :00:14:04.677
00:18:32.736                             : :00:18:32.653
00:25:14.971                             : :00:25:14.722
00:30:04.135                             : :00:30:04.052
00:35:11.859                             : :00:35:11.776
00:40:07.488                             : :00:40:07.405
00:44:36.215                             : :00:44:36.132
00:50:26.732                             : :00:50:26.649
00:55:36.291                             : :00:55:36.208
01:04:40.793                             : :01:04:40.710
01:14:04.064                             : :01:14:03.981
01:19:18.170                             : :01:19:17.962
01:23:59.242                             : :01:23:59.159
01:26:56.544                             : :01:26:56.461
01:30:38.349                             : :01:30:38.266
01:34:47.264                             : :01:34:47.181
01:40:16.093                             : :01:40:16.010



[/spoiler]

[/color][/b][/center]

Files list

- Sing (2016).H264.ita.eng.sub.ita.eng.iCV-MIRCrew.mkv File size : 1.56 GB

Disqus