Chat
Users Online
+ 10 Guests online in the last 24 hours.

Welcome to our newest member, AgrokrdSef
Ads
Torrent name: Appassionata (1974).H264.Italian.English.Ac3.sub.eng.iCV-MIRCrew
File size: 1.18 GB
Seeds: 6
Leechs: 10
Categories: Movies SD
Torrent hash: 4cbe757d71fe72477ddc41bc9b90c84c3b17f712
Social Share:
Uploader: robbyrs
Verified torrent:
    - udp://tracker.coppersurfer.tk:6969/announce
    - udp://tracker.opentrackr.org:1337/announce
    - udp://tracker.leechers-paradise.org:6969/announce
    - udp://9.rarbg.com:2710/announce
    - udp://9.rarbg.to:2710/announce
    - udp://9.rarbg.me:2710/announce
    - udp://glotorrents.pw:6969/announce
    - udp://tracker.openbittorrent.com:80/announce
    - udp://tracker.pubt.net:2710/announce
Download Appassionata (1974).H264.Italian.English.Ac3.sub.eng.iCV-MIRCrew
Download .torrent   Magnet Link
Torrent detail

Appassionata (1974).H264.Italian.English.Ac3.sub.eng.iCV-MIRCrew

Appassionata (1974).H264.Italian.English.Ac3.sub.eng.iCV-MIRCrew

[center]

[color=red][b][img]http://s23.postimg.org/b9yhws27f/0sc_Del1.png[/img]
[u]NO FOUND ONLY ORIGINAL RELEASE[/u]

[img]http://i.imgur.com/GDNQx1Z.png[/img]

My release is always in double track audio italian and Original audio
for select it use VLC or dvd player home
not use wmp

Appassionata (1974)

[img]https://extraimage.net/images/2017/04/17/ec29d7a659ef88be51f16e54fefb14c5.png[/img]

[URL=http://www.imdb.com/title/tt0071154/][IMG]http://www.userlogos.org/files/logos/Sucka/imdb_new.png[/IMG][/URL]

[img]http://i.imgur.com/fGu1rKv.png[/img]

Titolo originale     Appassionata
Lingua originale     italiano
Paese di produzione     Italia
Anno     1974
Durata     90 min
Genere     drammatico
Regia     Gianluigi Calderone
Soggetto     Gianluigi Calderone,
Alessandro Parenzo
Sceneggiatura     Alessandro Parenzo,
Domenico Rafele,
Gianluigi Calderone
Produttore     Tonino Cervi
Casa di produzione     P.A.C. Produzioni Atlas Consorziate
Distribuzione (Italia)     Titanus
Fotografia     Armando Nannuzzi
Montaggio     Nino Baragli
Musiche     Piero Piccioni
Scenografia     Luciano Spadoni
Costumi     Wayne Finkelman
Trucco     Mario Di Salvio

[img]http://i.imgur.com/W7kBqiE.png[/img]


    Gabriele Ferzetti: Emilio Rutelli
    Ornella Muti: Eugenia Rutelli
    Eleonora Giorgi: Nicola
    Ninetto Davoli: Ciccio, garzone del macellaio
    Valentina Cortese: Elisa Rutelli
    Jeanine Martinovic:
    Renata Zamengo: assistente
    Carla Mancini: paziente
    Luigi Antonio Guerra:


[img]http://i.imgur.com/bFK3ggF.png[/img]

Roma, 1974. Il dentista Emilio ha una moglie squilibrata, Elisa, che trascorre le giornate al piano a eseguire l'Appassionata, e una figlia adolescente, Eugenia, amica inseparabile di Nicola, disinibita coetanea che le seduce l'anziano genitore............

[img]http://i.imgur.com/48xHWWH.png[/img]

Two teenage friends conspire to find out how much their youthful sensuality can disrupt one of their households, headed by a dentist and his mentally-ill wife.  

[img]http://i.imgur.com/K8bfNTy.png[/img]

[img]https://extraimage.net/images/2017/04/17/1d9939adb027263924e350f0f0af8a9c.png[/img]
[img]https://extraimage.net/images/2017/04/17/97c731e2588d829c880cb1163e1f972c.png[/img]
[img]https://extraimage.net/images/2017/04/17/e02bfbd6ee995dba3386e4fffcb8e109.png[/img]
[img]https://extraimage.net/images/2017/04/17/fe89403f25c7875befc55b3ae1c65711.png[/img]


[img]http://i.imgur.com/aVrMohH.png[/img]


[spoiler]
General
Unique ID                                : 237206054899536256968266656801373467230 (0xB2743973123D83373E8712D394EEB25E)
Complete name                            : Appassionata (1974).H264.ita.eng.sub.ita.iCV-MIRCrew.mkv
Format                                   : Matroska
Format version                           : Version 2
File size                                : 1.18 GiB
Duration                                 : 1h 38mn
Overall bit rate                         : 1 712 Kbps
Movie name                               : Appassionata
Encoded date                             : UTC 2017-04-15T15:54:46Z
Writing application                      : HandBrake 0.10.5 2016021100
Writing library                          : Lavf55.12.0

Video
ID                                       : 1
Format                                   : AVC
Format/Info                              : Advanced Video Codec
Format profile                           : [email protected]
Format settings, CABAC                   : Yes
Format settings, ReFrames                : 4 frames
Codec ID                                 : V_MPEG4/ISO/AVC
Duration                                 : 1h 38mn
Bit rate                                 : 1 290 Kbps
Width                                    : 720 pixels
Height                                   : 390 pixels
Display aspect ratio                     : 16:9
Original display aspect ratio            : 1.851
Frame rate mode                          : Variable
Frame rate                               : 23.976 fps
Color space                              : YUV
Chroma subsampling                       : 4:2:0
Bit depth                                : 8 bits
Scan type                                : Progressive
Bits/(Pixel*Frame)                       : 0.192
Stream size                              : 912 MiB (76%)
Writing library                          : x264 core 142 r2479 dd79a61
Encoding settings                        : cabac=1 / ref=1 / deblock=1:0:0 / analyse=0x1:0x111 / me=hex / subme=2 / psy=1 / psy_rd=1.00:0.00 / mixed_ref=0 / me_range=16 / chroma_me=1 / trellis=0 / 8x8dct=0 / cqm=0 / deadzone=21,11 / fast_pskip=1 / chroma_qp_offset=0 / threads=12 / lookahead_threads=3 / sliced_threads=0 / nr=0 / decimate=1 / interlaced=0 / bluray_compat=0 / constrained_intra=0 / bframes=3 / b_pyramid=2 / b_adapt=1 / b_bias=0 / direct=1 / weightb=1 / open_gop=0 / weightp=1 / keyint=240 / keyint_min=24 / scenecut=40 / intra_refresh=0 / rc_lookahead=10 / rc=abr / mbtree=1 / bitrate=1290 / ratetol=1.0 / qcomp=0.60 / qpmin=0 / qpmax=69 / qpstep=4 / vbv_maxrate=20000 / vbv_bufsize=25000 / nal_hrd=none / filler=0 / ip_ratio=1.40 / aq=1:1.00
Default                                  : Yes
Forced                                   : No
Color primaries                          : BT.709-5, BT.1361, IEC 61966-2-4, SMPTE RP177
Transfer characteristics                 : BT.709-5, BT.1361
Matrix coefficients                      : BT.709-5, BT.1361, IEC 61966-2-4 709, SMPTE RP177

Audio #1
ID                                       : 2
Format                                   : AC-3
Format/Info                              : Audio Coding 3
Mode extension                           : CM (complete main)
Codec ID                                 : A_AC3
Duration                                 : 1h 38mn
Bit rate mode                            : Constant
Bit rate                                 : 192 Kbps
Channel(s)                               : 2 channels
Channel positions                        : Front: L R
Sampling rate                            : 48.0 KHz
Bit depth                                : 16 bits
Compression mode                         : Lossy
Delay relative to video                  : 1mn 5s
Stream size                              : 135 MiB (11%)
Title                                    : Stereo
Language                                 : Italian
Default                                  : Yes
Forced                                   : No

Audio #2
ID                                       : 3
Format                                   : AC-3
Format/Info                              : Audio Coding 3
Mode extension                           : CM (complete main)
Codec ID                                 : A_AC3
Duration                                 : 1h 38mn
Bit rate mode                            : Constant
Bit rate                                 : 192 Kbps
Channel(s)                               : 2 channels
Channel positions                        : Front: L R
Sampling rate                            : 48.0 KHz
Bit depth                                : 16 bits
Compression mode                         : Lossy
Delay relative to video                  : 1mn 5s
Stream size                              : 135 MiB (11%)
Title                                    : Stereo
Language                                 : English
Default                                  : No
Forced                                   : No

Text
ID                                       : 4
Format                                   : PGS
Codec ID                                 : S_HDMV/PGS
Language                                 : English
Default                                  : No
Forced                                   : No

Menu
00:00:00.000                             : :Chapter 1
00:04:26.307                             : :Chapter 2
00:07:55.266                             : :Chapter 3
00:10:12.361                             : :Chapter 4
00:17:45.356                             : :Chapter 5
00:21:08.225                             : :Chapter 6
00:25:49.798                             : :Chapter 7
00:30:37.127                             : :Chapter 8
00:35:29.669                             : :Chapter 9
00:39:00.046                             : :Chapter 10
00:42:47.857                             : :Chapter 11
00:45:56.587                             : :Chapter 12
00:50:33.196                             : :Chapter 13
00:53:12.856                             : :Chapter 14
00:59:31.860                             : :Chapter 15
01:04:05.216                             : :Chapter 16
01:08:32.066                             : :Chapter 17
01:12:21.170                             : :Chapter 18
01:15:21.600                             : :Chapter 19
01:19:12.706                             : :Chapter 20
01:23:21.121                             : :Chapter 21
01:29:18.353                             : :Chapter 22
01:31:41.120                             : :Chapter 23
01:36:57.061                             : :Chapter 24


[/spoiler]

[/color][/b][/center]

Files list

- Appassionata (1974).H264.ita.eng.sub.ita.iCV-MIRCrew.mkv File size : 1.18 GB

Disqus