Chat
Users Online
+ 11 Guests online in the last 24 hours.

Welcome to our newest member, ResZefsiteta
Ads
Torrent name: The Killer Inside Me (2010).H264.Italian.English.Ac3.5.1.sub.ita.eng.iCV-MIRCrew
File size: 1.58 GB
Seeds: 3
Leechs: 48
Categories: Movies SD
Torrent hash: 8a378c822c75ce935854f10d05234f5b77ccfaf9
Social Share:
Uploader: robbyrs
Verified torrent:
    - udp://tracker.coppersurfer.tk:6969/announce
    - udp://tracker.opentrackr.org:1337/announce
    - udp://tracker.leechers-paradise.org:6969/announce
    - udp://9.rarbg.com:2710/announce
    - udp://9.rarbg.to:2710/announce
    - udp://9.rarbg.me:2710/announce
    - udp://glotorrents.pw:6969/announce
    - udp://tracker.openbittorrent.com:80/announce
    - udp://tracker.pubt.net:2710/announce
Download The Killer Inside Me (2010).H264.Italian.English.Ac3.5.1.sub.ita.eng.iCV-MIRCrew
Download .torrent   Magnet Link
Torrent detail

The Killer Inside Me (2010).H264.Italian.English.Ac3.5.1.sub.ita.eng.iCV-MIRCrew

The Killer Inside Me (2010).H264.Italian.English.Ac3.5.1.sub.ita.eng.iCV-MIRCrew

[center]

[color=red][b][img]http://s23.postimg.org/b9yhws27f/0sc_Del1.png[/img]
[u]NO FOUND ONLY ORIGINAL RELEASE[/u]

[img]http://i.imgur.com/GDNQx1Z.png[/img]

My release is always in double track audio italian and Original audio
for select it use VLC or dvd player home
not use wmp

The Killer Inside Me (2010)

PRESENTI SOTTOTITOLI ESTERNI IN SRT (ita/eng)

[img]https://extraimage.net/images/2017/04/17/bdc1c61c8f156e2df495b9a3ad03b0e5.png[/img]

[URL=http://www.imdb.com/title/tt0954947/][IMG]http://www.userlogos.org/files/logos/Sucka/imdb_new.png[/IMG][/URL]

[img]http://i.imgur.com/fGu1rKv.png[/img]

Titolo originale     The Killer Inside Me
Paese di produzione     Stati Uniti
Anno     2010
Durata     109 min
Rapporto     1,85 : 1
Genere     thriller, noir, drammatico
Regia     Michael Winterbottom
Soggetto     Jim Thompson
Sceneggiatura     John Curran, Mark Tildesley
Produttore     Lilly Bright, Chad Burris, Andrew Eaton
Casa di produzione     Muse Productions, Revolution Films, Hero Entertainment
Distribuzione (Italia)     BiM Distribuzione
Effetti speciali     William Boggs
Musiche     Chadwick Brown

[img]http://i.imgur.com/W7kBqiE.png[/img]


    Casey Affleck: Lou Ford
    Kate Hudson: Amy Stanton
    Jessica Alba: Joyce Lakeland
    Ned Beatty: Chester Conway
    Elias Koteas: Joe Rothman
    Tom Bower: Bob Maples
    Simon Baker: Howard Hendricks
    Bill Pullman: Billy Boy Walker
    Liam Aiken: Johnnie Pappas


[img]http://i.imgur.com/bFK3ggF.png[/img]

Il ventinovenne Vice sceriffo Lou Ford è molto rispettato nella comunità di una piccola città del Texas (Stati Uniti) degli anni cinquanta e appare alla gente sempre paziente e attento. C'è chi pensa che sia noioso, ma niente di più. In realtà, però, nessuno è a conoscenza di quello che Lou stesso definisce una sua malattia.....................

[img]http://i.imgur.com/48xHWWH.png[/img]

Sadism and masochism beneath a veneer of revenge. Lou Ford is a mild-mannered sheriff's deputy in a Texas oil town in the mid 1950's. His boss sends him to roust a prostitute living in a rural house. She slaps him; he hits her, then, after daily sex for the next few weeks, he decides it's love. She's devoted to him and becomes his pawn in a revenge plot she thinks is to shakedown the son of Chester Conway, the town's wealthy king of construction.................  

[img]http://i.imgur.com/K8bfNTy.png[/img]

[img]https://extraimage.net/images/2017/04/17/6f7132dd9cd338a9bab3a28e51a5af26.png[/img]
[img]https://extraimage.net/images/2017/04/17/551eea7438875742409d9af9adb2dc52.png[/img]
[img]https://extraimage.net/images/2017/04/17/5dd9d5c6fbd61a25e04ffba300d28433.png[/img]


[img]http://i.imgur.com/aVrMohH.png[/img]


[spoiler]
General
Unique ID                                : 27856221139018526679911121744970510837 (0x14F4E9BD2E21F1749D4034974515F1F5)
Complete name                            : The Killer Inside Me (2010).ita.eng.sub.ita.eng.iCV-MIRCrew.mkv
Format                                   : Matroska
Format version                           : Version 2
File size                                : 1.58 GiB
Duration                                 : 1h 49mn
Overall bit rate                         : 2 073 Kbps
Movie name                               : The Killer Inside Me
Encoded date                             : UTC 2017-04-16T15:55:10Z
Writing application                      : HandBrake 0.10.5 2016021100
Writing library                          : Lavf55.12.0

Video
ID                                       : 1
Format                                   : AVC
Format/Info                              : Advanced Video Codec
Format profile                           : [email protected]
Format settings, CABAC                   : Yes
Format settings, ReFrames                : 4 frames
Codec ID                                 : V_MPEG4/ISO/AVC
Duration                                 : 1h 49mn
Bit rate                                 : 1 290 Kbps
Width                                    : 720 pixels
Height                                   : 304 pixels
Display aspect ratio                     : 2.35:1
Original display aspect ratio            : 2.35:1
Frame rate mode                          : Variable
Frame rate                               : 23.976 fps
Color space                              : YUV
Chroma subsampling                       : 4:2:0
Bit depth                                : 8 bits
Scan type                                : Progressive
Bits/(Pixel*Frame)                       : 0.246
Stream size                              : 988 MiB (61%)
Writing library                          : x264 core 142 r2479 dd79a61
Encoding settings                        : cabac=1 / ref=1 / deblock=1:0:0 / analyse=0x1:0x111 / me=hex / subme=2 / psy=1 / psy_rd=1.00:0.00 / mixed_ref=0 / me_range=16 / chroma_me=1 / trellis=0 / 8x8dct=0 / cqm=0 / deadzone=21,11 / fast_pskip=1 / chroma_qp_offset=0 / threads=12 / lookahead_threads=2 / sliced_threads=0 / nr=0 / decimate=1 / interlaced=0 / bluray_compat=0 / constrained_intra=0 / bframes=3 / b_pyramid=2 / b_adapt=1 / b_bias=0 / direct=1 / weightb=1 / open_gop=0 / weightp=1 / keyint=240 / keyint_min=24 / scenecut=40 / intra_refresh=0 / rc_lookahead=10 / rc=abr / mbtree=1 / bitrate=1290 / ratetol=1.0 / qcomp=0.60 / qpmin=0 / qpmax=69 / qpstep=4 / vbv_maxrate=20000 / vbv_bufsize=25000 / nal_hrd=none / filler=0 / ip_ratio=1.40 / aq=1:1.00
Default                                  : Yes
Forced                                   : No
Color primaries                          : BT.709-5, BT.1361, IEC 61966-2-4, SMPTE RP177
Transfer characteristics                 : BT.709-5, BT.1361
Matrix coefficients                      : BT.709-5, BT.1361, IEC 61966-2-4 709, SMPTE RP177

Audio #1
ID                                       : 2
Format                                   : AC-3
Format/Info                              : Audio Coding 3
Mode extension                           : CM (complete main)
Codec ID                                 : A_AC3
Duration                                 : 1h 49mn
Bit rate mode                            : Constant
Bit rate                                 : 384 Kbps
Channel(s)                               : 6 channels
Channel positions                        : Front: L C R, Side: L R, LFE
Sampling rate                            : 48.0 KHz
Bit depth                                : 16 bits
Compression mode                         : Lossy
Delay relative to video                  : 1mn 5s
Stream size                              : 300 MiB (19%)
Language                                 : Italian
Default                                  : Yes
Forced                                   : No

Audio #2
ID                                       : 3
Format                                   : AC-3
Format/Info                              : Audio Coding 3
Mode extension                           : CM (complete main)
Codec ID                                 : A_AC3
Duration                                 : 1h 49mn
Bit rate mode                            : Constant
Bit rate                                 : 384 Kbps
Channel(s)                               : 6 channels
Channel positions                        : Front: L C R, Side: L R, LFE
Sampling rate                            : 48.0 KHz
Bit depth                                : 16 bits
Compression mode                         : Lossy
Delay relative to video                  : 1mn 5s
Stream size                              : 300 MiB (19%)
Language                                 : English
Default                                  : No
Forced                                   : No

Text #1
ID                                       : 4
Format                                   : ASS
Codec ID                                 : S_TEXT/ASS
Codec ID/Info                            : Advanced Sub Station Alpha
Compression mode                         : Lossless
Language                                 : Italian
Default                                  : No
Forced                                   : No

Text #2
ID                                       : 5
Format                                   : ASS
Codec ID                                 : S_TEXT/ASS
Codec ID/Info                            : Advanced Sub Station Alpha
Compression mode                         : Lossless
Language                                 : Italian
Default                                  : No
Forced                                   : No

Text #3
ID                                       : 6
Format                                   : ASS
Codec ID                                 : S_TEXT/ASS
Codec ID/Info                            : Advanced Sub Station Alpha
Compression mode                         : Lossless
Language                                 : English
Default                                  : No
Forced                                   : No



[/spoiler]

[/color][/b][/center]

Files list

- The Killer Inside Me (2010).ita.eng.sub.ita.eng.iCV-MIRCrew.eng.ass File size : 94.1 KB
- The Killer Inside Me (2010).ita.eng.sub.ita.eng.iCV-MIRCrew.ita.srt File size : 127.66 KB
- The Killer Inside Me (2010).ita.eng.sub.ita.eng.iCV-MIRCrew.mkv File size : 1.58 GB
- The Killer Inside Me (2010).ita.eng.sub.ita.eng.iCV-MIRCrew.srt File size : 1.98 KB
- VISIT www.icv-crew.org.txt File size : 113 B

Disqus