Chat
Users Online
+ 17 Guests online in the last 24 hours.

Welcome to our newest member, AuausMalesserm
Ads
Torrent name: Curse of Chucky 2013 720p Esub BluRay Dual Audio English Hindi Tamil GOPI SAHI
File size: 816.78 MB
Seeds: 7
Leechs: 1
Categories: Apps
Torrent hash: 8accd506680dd8b5f3cc353e2030ae37b4c2f9ff
Social Share:
Uploader: gopisahi
Verified torrent:
    - udp://tracker.coppersurfer.tk:6969/announce
    - udp://tracker.opentrackr.org:1337/announce
    - udp://tracker.zer0day.to:1337/announce
    - udp://zer0day.to:1337/announce
    - udp://p4p.arenabg.com:1337/announce
    - udp://explodie.org:6969/announce
    - udp://tracker.leechers-paradise.org:6969/announce
    - udp://public.popcorn-tracker.org:6969/announce
    - udp://explodie.org:6969
Download Curse of Chucky 2013 720p Esub BluRay Dual Audio English Hindi Tamil GOPI SAHI
Download .torrent   Magnet Link
Torrent detail

Curse of Chucky 2013 720p Esub BluRay Dual Audio English Hindi Tamil GOPI SAHI

[center][url=http://upfile.mobi/DkDPPf6xF4V]SAMPLE[/url][/center]
[center]
[img]http://i.imgur.com/qtBLGSo.png[/img]
[img]http://i.imgur.com/GtZmoAM.jpg[/img]
[img]http://i.imgur.com/cy8WhoH.png[/img]
Video
ID                             : 1
Format                         : AVC
Codec ID                       : V_MPEG4/ISO/AVC
Duration                       : 1 h 36 min
Bit rate                       : 996 kb/s
Width                          : 1 280 pixels
Height                         : 720 pixels
Frame rate                     : 23.976 (24000/1001) FPS
Original frame rate            : 23.976 (23976/1000) FPS
Stream size                    : 689 MiB (84%)
Title                          : GOPI SAHI
Writing library                : x264 core 135 r2 f0c1c53

Audio #1
ID                             : 2
Format                         : AAC
Duration                       : 1 h 36 min
Bit rate                       : 93.8 kb/s
Channel(s)                     : 2 channels
Channel positions              : Front: L R
Sampling rate                  : 48.0 kHz
Frame rate                     : 46.875 FPS (1024 spf)
Stream size                    : 64.9 MiB (8%)
Language                       : English

Audio #2
ID                             : 3
Codec ID/Hint                  : MP3
Duration                       : 1 h 31 min
Bit rate                       : 44.4 kb/s
Channel(s)                     : 1 channel
Sampling rate                  : 48.0 kHz
Frame rate                     : 41.666 FPS (1152 spf)
Stream size                    : 29.1 MiB (4%)
Language                       : Tamil

Audio #3
Format                         : AAC
Duration                       : 1 h 31 min
Bit rate                       : 48.0 kb/s
Channel(s)                     : 6 channels
Channel positions              : Front: L C R, Side: L R, LFE
Sampling rate                  : 44.1 kHz
Frame rate                     : 43.066 FPS (1024 spf)s
Stream size                    : 31.6 MiB (4%)
Language                       : Hindi

Text
ID                             : 4
Duration                       : 1 h 35 min
Stream size                    : 20.9 KiB (0%)
Language                       : English
[img]http://i.imgur.com/ikXHSDF.png[/img]
[img]http://i.imgur.com/SErdPUb.jpg[/img]
[img]http://i.imgur.com/C8WDKyT.jpg[/img]
[img]http://i.imgur.com/vcKrDMO.jpg[/img]
[color=Red]All Credit Goes To Intellect Clever & IcTv [/color][/center]

Files list

- Curse of Chucky 2013 720p Esub BluRay Dual Audio English Hindi GOPI SAHI.mkv File size : 816.78 MB

Disqus