Chat
Users Online
+ 17 Guests online in the last 24 hours.

Welcome to our newest member, AuausMalesserm
Ads
Torrent name: Bambukat 2016 480p DVD RIP Punjabi GOPI SAHI
File size: 668.55 MB
Seeds: 7
Leechs: 0
Categories: Apps
Torrent hash: 51bbe9193626d1b2cf622db2c4d1c1a876b2b0ea
Social Share:
Uploader: gopisahi
Verified torrent:
    - udp://tracker.coppersurfer.tk:6969/announce
    - udp://tracker.opentrackr.org:1337/announce
    - udp://tracker.zer0day.to:1337/announce
    - udp://zer0day.to:1337/announce
    - udp://p4p.arenabg.com:1337/announce
    - udp://explodie.org:6969/announce
    - udp://tracker.leechers-paradise.org:6969/announce
    - udp://public.popcorn-tracker.org:6969/announce
    - udp://explodie.org:6969
Download Bambukat 2016 480p DVD RIP Punjabi GOPI SAHI
Download .torrent   Magnet Link
Torrent detail

Bambukat 2016 480p DVD RIP Punjabi GOPI SAHI

[center][img]http://i.imgur.com/qtBLGSo.png[/img]
[img]http://i.imgur.com/cy8WhoH.png[/img]

Video
ID                             : 1
Format                         : AVC
Codec ID                       : V_MPEG4/ISO/AVC
Duration                       : 1 h 57 min
Bit rate                       : 699 kb/s
Width                          : 720 pixels
Height                         : 430 pixels
Display aspect ratio           : 1.984
Frame rate mode                : Constant
Frame rate                     : 23.976 (24000/1001) FPS
Stream size                    : 592 MiB (89%)
Writing library                : x264 core 130 r2273 b3065e6

Audio
ID                             : 2
Format                         : AAC
Duration                       : 1 h 57 min
Bit rate                       : 88.3 kb/s
Channel(s)                     : 6 channels
Channel positions              : Front: L C R, Side: L R, LFE
Sampling rate                  : 44.1 kHz
Frame rate                     : 43.066 FPS (1024 spf)
Stream size                    : 74.5 MiB (11%)
[img]http://i.imgur.com/ikXHSDF.png[/img]
[img]http://i.imgur.com/2hO2XqU.jpg[/img]
[img]http://i.imgur.com/03mGVZa.jpg[/img][/center]

Files list

- Bambukat 2016 480p DVD RIP Punjabi GOPI SAHI.mkv File size : 668.55 MB

Disqus