Chat
Users Online
+ 8 Guests online in the last 24 hours.

Welcome to our newest member, nymxwjkytdy
Ads
Torrent name: Love Punjab 2016 720p DVD RIP GOPI SAHI
File size: 892.81 MB
Seeds: 7
Leechs: 0
Categories: Games
Torrent hash: db58af1abb1f20d7092da7f191d3554831f34899
Social Share:
Uploader: gopisahi
Verified torrent:
    - udp://tracker.coppersurfer.tk:6969/announce
    - udp://tracker.opentrackr.org:1337/announce
    - udp://tracker.zer0day.to:1337/announce
    - udp://zer0day.to:1337/announce
    - udp://p4p.arenabg.com:1337/announce
    - udp://explodie.org:6969/announce
    - udp://tracker.leechers-paradise.org:6969/announce
    - udp://public.popcorn-tracker.org:6969/announce
    - udp://explodie.org:6969
Download Love Punjab 2016 720p DVD RIP GOPI SAHI
Download .torrent   Magnet Link
Torrent detail

Love Punjab 2016 720p DVD RIP GOPI SAHI

[img]http://i.imgur.com/qtBLGSo.png[/img]
[img]http://i.imgur.com/cy8WhoH.png[/img]
Video
ID                             : 1
Format                         : AVC
Codec ID                       : V_MPEG4/ISO/AVC
Duration                       : 2 h 10 min
Bit rate                       : 899 kb/s
Width                          : 1 280 pixels
Height                         : 656 pixels
Display aspect ratio           : 1.951
Frame rate mode                : Constant
Frame rate                     : 23.976 (24000/1001) FPS
Stream size                    : 834 MiB (93%)
Writing library                : x264 core 130 r2273 b3065e6

Audio
ID                             : 2
Format                         : AAC
Duration                       : 2 h 10 min
Bit rate                       : 61.5 kb/s
Channel(s)                     : 6 channels
Channel positions              : Front: L C R, Side: L R, LFE
Sampling rate                  : 44.1 kHz
Frame rate                     : 43.066 FPS (1024 spf)
Stream size                    : 57.3 MiB (6%)
[img]http://i.imgur.com/ikXHSDF.png[/img]
[img]http://i.imgur.com/LmMCYgm.jpg[/img]
[img]http://i.imgur.com/u1vuNHU.jpg[/img]
[img]http://i.imgur.com/w1QeUxp.jpg[/img]

Files list

- Love Punjab 2016 720p DVD RIP GOPI SAHI.mkv File size : 892.81 MB

Disqus