Chat
Users Online
+ 17 Guests online in the last 24 hours.

Welcome to our newest member, AuausMalesserm
Ads
Torrent name: The Fate of the Furious 2017 720p Esub HD Dual Audio English Hindi GOPI SAHI
File size: 759.71 MB
Seeds: 0
Leechs: 7
Categories: Apps
Torrent hash: ab2bb9b60c2e9cd701fc865945bdd538b3395b82
Social Share:
Uploader: gopisahi
Verified torrent:
    - udp://tracker.coppersurfer.tk:6969/announce
    - udp://tracker.opentrackr.org:1337/announce
    - udp://tracker.zer0day.to:1337/announce
    - udp://zer0day.to:1337/announce
    - udp://p4p.arenabg.com:1337/announce
    - udp://explodie.org:6969/announce
    - udp://tracker.leechers-paradise.org:6969/announce
    - udp://public.popcorn-tracker.org:6969/announce
    - udp://explodie.org:6969
Download The Fate of the Furious 2017 720p Esub HD Dual Audio English Hindi GOPI SAHI
Download .torrent   Magnet Link
Torrent detail

The Fate of the Furious 2017 720p Esub HD Dual Audio English Hindi GOPI SAHI

[center][b][u]SAMPLE INCULDED IN TORRENT FIRST CHECK THEN DWONLOAD[/u][/b]
[img]http://i.imgur.com/qtBLGSo.png[/img]
[img]http://i.imgur.com/cy8WhoH.png[/img]
Video
ID                             : 1
Format                         : HEVC
Codec ID                       : V_MPEGH/ISO/HEVC
Duration                       : 2 h 15 min
Bit rate                       : 640 kb/s
Width                          : 1 280 pixels
Height                         : 532 pixels
Display aspect ratio           : 2.40:1
Frame rate mode                : Variable
Frame rate                     : 23.976 FPS
Original frame rate            : 25.000 FPS
Bits/(Pixel*Frame)             : 0.039
Stream size                    : 623 MiB (83%)
Writing library                : x265 2.4+9-dccf02340c75:[Linux][GCC 5.4.0][64 bit] 8bit

Audio #1
Format                         : AAC
Duration                       : 2 h 15 min
Bit rate                       : 81.1 kb/s
Channel(s)                     : 2 channels
Channel positions              : Front: L R
Sampling rate                  : 48.0 kHz
Frame rate                     : 46.875 FPS (1024 spf)
Stream size                    : 78.8 MiB (10%)
Language                       : English

Audio #2
Format                         : AAC
Duration                       : 2 h 15 min
Bit rate                       : 51.4 kb/s
Channel(s)                     : 6 channels
Channel positions              : Front: L C R, Side: L R, LFE
Sampling rate                  : 44.1 kHz
Frame rate                     : 43.066 FPS (1024 spf)
Stream size                    : 50.0 MiB (7%)
Language                       : Hindi

Text
Duration                       : 2 h 4 min
Bit rate                       : 52 b/s
Count of elements              : 1507
Stream size                    : 48.0 KiB (0%)
Language                       : English
[img]http://i.imgur.com/ikXHSDF.png[/img]
[img]http://i.imgur.com/4e6F4FH.jpg[/img]
[img]http://i.imgur.com/Gean9Qw.jpg[/img]
[img]http://i.imgur.com/4nXxbqH.jpg[/img][/center]

Files list

- DWONLOAD FROM.txt File size : 37 B
- SAMPLE.mkv File size : 5.18 MB
- The Fate of the Furious 2017.mkv File size : 754.54 MB

Disqus