Chat
Users Online
+ 17 Guests online in the last 24 hours.

Welcome to our newest member, AuausMalesserm
Ads
Torrent name: Bank Chor 2017 Hindi DvDScr GOPI SAHI
File size: 698.36 MB
Seeds: 0
Leechs: 0
Categories: Apps
Torrent hash: 00229e3598d4dc29173678d2eebbb95d2c5edc3b
Social Share:
Uploader: gopisahi
Verified torrent:
    - udp://tracker.coppersurfer.tk:6969/announce
    - udp://tracker.opentrackr.org:1337/announce
    - udp://tracker.zer0day.to:1337/announce
    - udp://zer0day.to:1337/announce
    - udp://p4p.arenabg.com:1337/announce
    - udp://explodie.org:6969/announce
    - udp://tracker.leechers-paradise.org:6969/announce
    - udp://public.popcorn-tracker.org:6969/announce
    - udp://explodie.org:6969
Download Bank Chor 2017 Hindi DvDScr GOPI SAHI
Download .torrent   Magnet Link
Torrent detail

Bank Chor 2017 Hindi DvDScr GOPI SAHI

[center][img]http://i.imgur.com/qtBLGSo.png[/img]
[img]http://i.imgur.com/cy8WhoH.png[/img]
Video
ID                             : 1
Format                         : AVC
Codec ID                       : V_MPEG4/ISO/AVC
Duration                       : 1 h 54 min
Bit rate                       : 769 kb/s
Width                          : 640 pixels
Height                         : 272 pixels
Stream size                    : 631 MiB (90%)
Writing library                : x264 core
Language                       : English

Audio
ID                             : 2
Format                         : AAC
Duration                       : 1 h 54 min
Bit rate                       : 80.0 kb/s
Channel(s)                     : 2 channels
Channel positions              : Front: L R
Sampling rate                  : 44.1 kHz
Frame rate                     : 43.066 FPS (1024 spf)
Compression mode               : Lossy
Delay relative to video        : 10 ms
Stream size                    : 65.6 MiB (9%)
[img]http://i.imgur.com/ikXHSDF.png[/img]
[img]http://i.imgur.com/WoJU0j3.jpg[/img]
[img]http://i.imgur.com/G9datmB.jpg[/img]
[img]http://i.imgur.com/3HIVWbq.jpg[/img]
[img]http://i.imgur.com/NCscifB.jpg[/img]
[img]http://i.imgur.com/VLd3XZo.jpg[/img][/center]

Files list

- Bank Chor 2017 Hindi DvDScr GOPI SAHI.mkv File size : 698.36 MB

Disqus