Chat
Users Online
+ 9 Guests online in the last 24 hours.

Welcome to our newest member, Charlesirows
Ads
Torrent name: Gladiator 2000 720p Esub BRrip Dual Audio English Hindi 5.1 GOPISAHI
File size: 993.41 MB
Seeds: 6
Leechs: 0
Categories: Apps
Torrent hash: 3e5dba8a1c782e484146b447db03e24b853f3305
Social Share:
Uploader: gopisahi
Verified torrent:
    - udp://tracker.coppersurfer.tk:6969/announce
    - udp://tracker.opentrackr.org:1337/announce
    - udp://tracker.zer0day.to:1337/announce
    - udp://zer0day.to:1337/announce
    - udp://p4p.arenabg.com:1337/announce
    - udp://explodie.org:6969/announce
    - udp://tracker.leechers-paradise.org:6969/announce
    - udp://public.popcorn-tracker.org:6969/announce
    - udp://explodie.org:6969
Download Gladiator 2000 720p Esub BRrip Dual Audio English Hindi 5.1 GOPISAHI
Download .torrent   Magnet Link
Torrent detail

Gladiator 2000 720p Esub BRrip Dual Audio English Hindi 5.1 GOPISAHI

[u]Sorce Gladiator 1080p Manudil SilverRG[/u]
[u]Encoder = GD Higly comrser in Hindi[/u]
[u]uplder = GOPI[/u]
Video
Format                         : AVC
Codec ID                       : V_MPEG4/ISO/AVC
Duration                       : 2 h 50 min
Bit rate                       : 637 kb/s
Width                          : 1 280 pixels
Height                         : 544 pixels
Display aspect ratio           : 2.35:1
Frame rate mode                : Constant
Frame rate                     : 23.976 (23976/1000) FPS
Original frame rate            : 23.976 (24000/1001) FPS
Color space                    : YUV
Chroma subsampling             : 4:2:0
Stream size                    : 779 MiB (78%)
Writing library                : x264 core 146 r2538 121396c

Audio #1
Format                         : AAC
Duration                       : 2 h 44 min
Bit rate                       : 89.1 kb/s
Channel(s)                     : 6 channels
Channel positions              : Front: L C R, Side: L R, LFE
Sampling rate                  : 44.1 kHz
Frame rate                     : 43.066 FPS (1024 SPF)
Stream size                    : 105 MiB (11%)
Language                       : Hindi

Audio #2
Format                         : AAC
Duration                       : 2 h 50 min
Bit rate                       : 87.2 kb/s
Channel(s)                     : 6 channels
Channel positions              : Front: L C R, Side: L R, LFE
Sampling rate                  : 44.1 kHz
Frame rate                     : 43.066 FPS (1024 SPF)
Stream size                    : 107 MiB (11%)
Language                       : English

Text
Duration                       : 2 h 40 min
Bit rate                       : 34 b/s
Count of elements              : 1348
Stream size                    : 40.7 KiB (0%)
Language                       : English
[img]http://i.imgur.com/BlGPWbg.jpg[/img]
[img]http://i.imgur.com/H2gJ30y.jpg[/img]
[img]http://i.imgur.com/EZ22yY5.jpg[/img]
[img]http://i.imgur.com/vnY0AZU.jpg[/img]

Files list

- Gladiator 2000 720p Esub BRrip Dual Audio English Hindi 5.1 GOPISAHI.mkv File size : 993.41 MB

Disqus