Chat
Users Online
+ 17 Guests online in the last 24 hours.

Welcome to our newest member, AuausMalesserm
Ads
Torrent name: Wrong Turn at Tahoe 2009 720p Esub DVD Dual Audio English Hindi GOPISAHI
File size: 902.96 MB
Seeds: 6
Leechs: 0
Categories: Apps
Torrent hash: ad9c8e64bd93372b6a076e9a1747e0496d21cd38
Social Share:
Uploader: gopisahi
Verified torrent:
    - udp://tracker.coppersurfer.tk:6969/announce
    - udp://tracker.opentrackr.org:1337/announce
    - udp://tracker.zer0day.to:1337/announce
    - udp://zer0day.to:1337/announce
    - udp://p4p.arenabg.com:1337/announce
    - udp://explodie.org:6969/announce
    - udp://tracker.leechers-paradise.org:6969/announce
    - udp://public.popcorn-tracker.org:6969/announce
    - udp://explodie.org:6969
Download Wrong Turn at Tahoe 2009 720p Esub DVD Dual Audio English Hindi GOPISAHI
Download .torrent   Magnet Link
Torrent detail

Wrong Turn at Tahoe 2009 720p Esub DVD Dual Audio English Hindi GOPISAHI

[center][img]http://i.imgur.com/b627MBn.jpg[/img]
Video
ID                             : 1
Format                         : AVC
Codec ID                       : V_MPEG4/ISO/AVC
Duration                       : 1 h 30 min
Bit rate                       : 1 247 kb/s
Width                          : 1 280 pixels
Height                         : 544 pixels
Display aspect ratio           : 2.35:1
Frame rate mode                : Constant
Frame rate                     : 23.976 (24000/1001) FPS
Color space                    : YUV
Chroma subsampling             : 4:2:0
Bit depth                      : 8 bits
Scan type                      : Progressive
Bits/(Pixel*Frame)             : 0.075
Stream size                    : 791 MiB (88%)
Writing library                : x264 core

Audio #1
Format                         : AAC
Duration                       : 1 h 30 min
Bit rate                       : 80.2 kb/s
Channel(s)                     : 6 channels
Channel positions              : Front: L C R, Side: L R, LFE
Sampling rate                  : 44.1 kHz
Frame rate                     : 43.066 FPS (1024 SPF)
Compression mode               : Lossy
Stream size                    : 52.0 MiB (6%)
Language                       : English

Audio #2
Format                         : AAC
Duration                       : 1 h 30 min
Bit rate                       : 89.5 kb/s
Channel(s)                     : 6 channels
Channel positions              : Front: L C R, Side: L R, LFE
Sampling rate                  : 44.1 kHz
Frame rate                     : 43.066 FPS (1024 SPF)
Stream size                    : 58.0 MiB (6%)
Language                       : Hindi

Text
Duration                       : 1 h 24 min
Stream size                    : 34.5 KiB (0%)
Language                       : English
[img]http://i.imgur.com/balBGJL.jpg[/img]
[img]http://i.imgur.com/GZPIun2.jpg[/img]
[img]http://i.imgur.com/tgCgw8N.jpg[/img]
[img]http://i.imgur.com/UIPyjXV.jpg[/img][/center]

Files list

- Wrong Turn at Tahoe 2009 720p Esub DVD Dual Audio English Hindi GOPISAHI.mkv File size : 902.96 MB

Disqus