Chat
Users Online
+ 17 Guests online in the last 24 hours.

Welcome to our newest member, AdiusEment
Ads
Torrent name: The Tudors - I Tudors Season 2 (2008).H264.Italian.English.Ac3.5.1.sub.ita.eng.iCV-MIRCrew
File size: 7.83 GB
Seeds: 6
Leechs: 0
Categories: TV SD
Torrent hash: ff58abfc82f82a852637bf673aeed5038d807d5b
Social Share:
Uploader: robbyrs
Verified torrent:
    - udp://tracker.coppersurfer.tk:6969/announce
    - udp://tracker.opentrackr.org:1337/announce
    - udp://tracker.leechers-paradise.org:6969/announce
    - udp://9.rarbg.com:2710/announce
    - udp://9.rarbg.to:2710/announce
    - udp://9.rarbg.me:2710/announce
    - http://tracker.tfile.me/announce
    - http://tracker.dutchtracking.nl/announce
    - http://tracker.dutchtracking.nl:80/announce
    - http://tracker.tfile.me:80/announce
    - udp://glotorrents.pw:6969/announce
    - udp://tracker.openbittorrent.com:80/announce
    - udp://tracker.pubt.net:2710/announce
    - udp://inferno.demonoid.pw:3393/announce
Download The Tudors - I Tudors Season 2 (2008).H264.Italian.English.Ac3.5.1.sub.ita.eng.iCV-MIRCrew
Download .torrent   Magnet Link
Torrent detail

The Tudors - I Tudors Season 2 (2008).H264.Italian.English.Ac3.5.1.sub.ita.eng.iCV-MIRCrew

The Tudors - I Tudors  Season 2 (2008).H264.Italian.English.Ac3.5.1.sub.ita.eng.iCV-MIRCrew

[center]

[color=red][b][img]https://extraimago.com/images/2016/07/16/oCo82IVa08d8.png[/img]
[u]NO FOUND ONLY ORIGINAL RELEASE[/u]

My release is always in double track audio italian and Original audio
for select it use VLC or dvd player home
not use wmp

The Tudors - I Tudors  Season 2 (2008)

[url=https://extraimago.com/image/w23V][img]https://extraimago.com/images/2016/08/03/c240423e4e3f560bd8882e950bfb78f3.th.jpg[/img][/url]

[URL=https://www.imdb.com/title/tt0758790/][IMG]https://www.userlogos.org/files/logos/Sucka/imdb_new.png[/IMG][/URL]

[img]https://i.imgur.com/fWCejk0.png[/img]

La serie è stata prodotta da Peace Arch Entertainment per Showtime in associazione con Reveille Productions, Working Title Television e Canadian Broadcasting Corporation ed è stata girata in Irlanda.

Titolo originale     The Tudors
Ideatore     Michael Hirst
Sceneggiatura     Michael Hirst
Paese     Regno Unito, Irlanda, Canada
Anno     2007-2010
Formato     serie TV
Genere     drammatico, storico
Stagioni     4
Episodi     38
Durata     55 min (episodio)
Lingua originale     inglese
Caratteristiche tecniche
Rapporto     16:9
Risoluzione     1080i
Colore     colore
Audio     Dolby Digital 5.1

[img]https://i.imgur.com/V3qrNAd.png[/img]

Jonathan Rhys-Meyers: Enrico VIII
Henry Cavill: Charles Brandon
Natalie Dormer: Anna Bolena
James Frain: Thomas Cromwell
Nick Dunning: Tommaso Bolena
Maria Doyle Kennedy: Caterina d'Aragona
Sarah Bolger: Maria I d'Inghilterra
Hans Matheson: Thomas Cranmer
Henry Czerny: Thomas Howard
Jamie Thomas King: Thomas Wyatt
ecc..........................

[img]https://i.imgur.com/GOBJ1sT.png[/img]

Enrico VIII è sposato da quasi vent'anni con Caterina d'Aragona, ma non riesce ad avere figli maschi: il re preferirebbe garantire stabilità alla sua dinastia, che è al trono da tempo relativamente breve. Le scappatelle del sovrano non sono rare, ed una delle sue amanti, Bessie Blount, dà alla luce un figlio. A questo punto il sovrano inizia a pensare di aver commesso un peccato sposando la moglie del suo defunto fratello Arturo........

[img]https://i.imgur.com/R7WrNZe.png[/img]

This costume drama features England's splendid Renaissance dynasty under King Henry VIII. Beginning in Season 1 when Henry VIII was growing desperate for an heir and growing distant from his first wife, the series moves quickly to the period when Anne Boleyn became his obsession. During this time Cardinal Wolsey rose to become the power behind his throne, ruling ruthlessly and nearly absolutely while Henry (played by Johnathon Rhys Meyers) for the most part followed the Cardinal's advice, maneuvering through a series of betrayals and plots against him.......

[img]https://i.imgur.com/GgEl7ea.png[/img]

[url=https://worldimages.gallery/image/LjKrQ][img]https://worldimages.gallery/images/2017/08/12/vlcsnap-2017-08-12-11h09m03s701.th.png[/img][/url] [url=https://worldimages.gallery/image/LjgIK][img]https://worldimages.gallery/images/2017/08/12/vlcsnap-2017-08-12-11h09m30s835.th.png[/img][/url] [url=https://worldimages.gallery/image/Ljr77][img]https://worldimages.gallery/images/2017/08/12/vlcsnap-2017-08-12-11h09m45s041.th.png[/img][/url] [url=https://worldimages.gallery/image/LjDhk][img]https://worldimages.gallery/images/2017/08/12/vlcsnap-2017-08-12-11h10m18s706.th.png[/img][/url]

[img]https://i.imgur.com/Hm4fw0l.png[/img]


[spoiler]
General
Unique ID                                : 181951978813470705138272077910700637767 (0x88E2AD2B6AB23624FB99B73E4312BE47)
Complete name                            : Ep 07 - Matters of State - La Morte di Caterina.mkv
Format                                   : Matroska
Format version                           : Version 2
File size                                : 824 MiB
Duration                                 : 53mn 51s
Overall bit rate                         : 2 139 Kbps
Movie name                               : VISIT www.icv-crew.org
Encoded date                             : UTC 2016-09-22 20:03:43
Writing application                      : Lavf54.63.100
Writing library                          : Lavf54.63.100

Video
ID                                       : 1
Format                                   : AVC
Format/Info                              : Advanced Video Codec
Format profile                           : [email protected]
Format settings, CABAC                   : Yes
Format settings, ReFrames                : 2 frames
Codec ID                                 : V_MPEG4/ISO/AVC
Duration                                 : 53mn 51s
Bit rate                                 : 1 230 Kbps
Width                                    : 720 pixels
Height                                   : 404 pixels
Display aspect ratio                     : 16:9
Original display aspect ratio            : 16:9
Frame rate mode                          : Variable
Frame rate                               : 23.976 fps
Color space                              : YUV
Chroma subsampling                       : 4:2:0
Bit depth                                : 8 bits
Scan type                                : Progressive
Bits/(Pixel*Frame)                       : 0.176
Stream size                              : 462 MiB (56%)
Title                                    : Ep 07: Matters of State - La Morte di Caterina
Writing library                          : x264 core 130 r2273
Encoding settings                        : cabac=1 / ref=2 / deblock=1:0:0 / analyse=0x1:0x131 / me=hex / subme=7 / psy=1 / psy_rd=1.00:0.00 / mixed_ref=0 / me_range=16 / chroma_me=1 / trellis=1 / 8x8dct=0 / cqm=0 / deadzone=21,11 / fast_pskip=1 / chroma_qp_offset=-2 / threads=12 / lookahead_threads=2 / sliced_threads=0 / nr=0 / decimate=1 / interlaced=0 / bluray_compat=0 / constrained_intra=0 / bframes=3 / b_pyramid=0 / b_adapt=1 / b_bias=0 / direct=3 / weightb=1 / open_gop=0 / weightp=2 / keyint=230 / keyint_min=23 / scenecut=40 / intra_refresh=0 / rc_lookahead=40 / rc=2pass / mbtree=1 / bitrate=1230 / ratetol=1.0 / qcomp=0.60 / qpmin=10 / qpmax=69 / qpstep=4 / cplxblur=20.0 / qblur=0.5 / vbv_maxrate=24000 / vbv_bufsize=24000 / nal_hrd=none / ip_ratio=1.40 / aq=1:1.00
Default                                  : Yes
Forced                                   : No
DURATION                                 : 00:53:51.270000000
NUMBER_OF_FRAMES                         : 77473
NUMBER_OF_BYTES                          : 2781008572
_STATISTICS_WRITING_APP                  : mkvmerge v9.2.0 ('Photograph') 64bit
_STATISTICS_WRITING_DATE_UTC             : 2016-06-06 21:37:16
_STATISTICS_TAGS                         : BPS DURATION NUMBER_OF_FRAMES NUMBER_OF_BYTES

Audio #1
ID                                       : 2
Format                                   : AC-3
Format/Info                              : Audio Coding 3
Mode extension                           : CM (complete main)
Codec ID                                 : A_AC3
Duration                                 : 53mn 51s
Bit rate mode                            : Constant
Bit rate                                 : 448 Kbps
Channel(s)                               : 6 channels
Channel positions                        : Front: L C R, Side: L R, LFE
Sampling rate                            : 48.0 KHz
Bit depth                                : 16 bits
Compression mode                         : Lossy
Delay relative to video                  : 1mn 5s
Stream size                              : 173 MiB (21%)
Title                                    : Italian Ac3 5.1 chnls 448 kbps
Language                                 : Italian
Default                                  : No
Forced                                   : No
DURATION                                 : 00:53:51.296000000
NUMBER_OF_FRAMES                         : 100978
NUMBER_OF_BYTES                          : 180952576
_STATISTICS_WRITING_APP                  : mkvmerge v9.2.0 ('Photograph') 64bit
_STATISTICS_WRITING_DATE_UTC             : 2016-06-06 21:37:16
_STATISTICS_TAGS                         : BPS DURATION NUMBER_OF_FRAMES NUMBER_OF_BYTES

Audio #2
ID                                       : 3
Format                                   : AC-3
Format/Info                              : Audio Coding 3
Mode extension                           : CM (complete main)
Codec ID                                 : A_AC3
Duration                                 : 53mn 51s
Bit rate mode                            : Constant
Bit rate                                 : 448 Kbps
Channel(s)                               : 6 channels
Channel positions                        : Front: L C R, Side: L R, LFE
Sampling rate                            : 48.0 KHz
Bit depth                                : 16 bits
Compression mode                         : Lossy
Delay relative to video                  : 1mn 5s
Stream size                              : 173 MiB (21%)
Title                                    : English Ac3 5.1 chnls 448 kbps
Language                                 : English
Default                                  : Yes
Forced                                   : No
DURATION                                 : 00:53:51.296000000
NUMBER_OF_FRAMES                         : 100978
NUMBER_OF_BYTES                          : 180952576
_STATISTICS_WRITING_APP                  : mkvmerge v9.2.0 ('Photograph') 64bit
_STATISTICS_WRITING_DATE_UTC             : 2016-06-06 21:37:16
_STATISTICS_TAGS                         : BPS DURATION NUMBER_OF_FRAMES NUMBER_OF_BYTES

Text
ID                                       : 4
Format                                   : VobSub
Codec ID                                 : S_VOBSUB
Codec ID/Info                            : The same subtitle format used on DVDs
Title                                    : italian
Language                                 : Italian
Default                                  : No
Forced                                   : No
DURATION                                 : 00:48:31.022000000
NUMBER_OF_FRAMES                         : 517
NUMBER_OF_BYTES                          : 1702012
_STATISTICS_WRITING_APP                  : mkvmerge v9.2.0 ('Photograph') 64bit
_STATISTICS_WRITING_DATE_UTC             : 2016-06-06 21:37:16
_STATISTICS_TAGS                         : BPS DURATION NUMBER_OF_FRAMES NUMBER_OF_BYTES

Menu
00:00:00.000                             : :00:00:00.000
00:11:23.683                             : :00:11:23.683
00:26:20.996                             : :00:26:20.996
00:40:22.587                             : :00:40:22.587
00:52:48.791                             : :00:52:48.791


[/spoiler]

[/color][/b][/center]

Files list

- Ep 01 - Everything is Beautiful - Il Re Ribelle.mkv File size : 819.69 MB
- Ep 02 - Tears of Blood - Intrighi e Veleni.mkv File size : 866.19 MB
- Ep 03 - Checkmate - Le Due Regine.mkv File size : 782.02 MB
- Ep 04 - The Act of Succession - Il Giuramento.mkv File size : 812.26 MB
- Ep 05 - His Majesty's Pleasure - Fede Indomita.mkv File size : 818.25 MB
- Ep 06 - The Definition of Love - Vendetta.mkv File size : 775.52 MB
- Ep 07 - Matters of State - La Morte di Caterina.mkv File size : 823.81 MB
- Ep 08 - Lady in Waiting - Passaggio di Consegne.mkv File size : 781.51 MB
- Ep 09 - The Act of Treason - Alto Tradimento.mkv File size : 792.55 MB
- Ep 10 - Destiny and Fortune - L'ora di Anna Bolena.mkv File size : 742.12 MB

Disqus