Chat
Users Online
+ 17 Guests online in the last 24 hours.

Welcome to our newest member, AuausMalesserm
Ads
Torrent name: Mahakaali.S01E01.Parvati's fateful vision!.WEBRip.720p.x264.KiSS.mp4
File size: 935.92 MB
Seeds: 10
Leechs: 7
Categories: TV HD
Torrent hash: 9a9dd76af92286249504de2fd2d132fda20688ac
Social Share:
Uploader: [email protected]
Verified torrent:
    - udp://eddie4.nl:6969/announce
    - udp://tracker.torrent.eu.org:451/announce
    - udp://tracker.opentrackr.org:1337/announce
    - udp://tracker.internetwarriors.net:1337/announce
    - udp://tracker.coppersurfer.tk:6969/announce
    - udp://tracker.openbittorrent.com:80/announce
    - udp://11.rarbg.com:80/announce
    - udp://mgtracker.org:2710/announce
    - udp://tracker4.piratux.com:6969/announce
    - udp://torrent.gresille.org:80/announce
    - udp://tracker.trackerfix.com:80/announce
    - udp://tracker.pirateparty.gr:6969/announce
Download Mahakaali.S01E01.Parvati's fateful vision!.WEBRip.720p.x264.KiSS.mp4
Download .torrent   Magnet Link
Torrent detail

Mahakaali.S01E01.Parvati's fateful vision!.WEBRip.720p.x264.KiSS.mp4

If you like our Work Share this torrent with your Friends & Say Thanks..Seed a lot
& Like Our Page
www.facebook.com/KissToonTv

[img]https://i.imgur.com/BjwntUo.jpg[/img]

Mahakali Anth Hi Aarambh Hai

Synopsis :-

If there is one goddess in our mythology who is feared and revered at the same time, it is Kaali. She is the ultimate destroyer. She destroys limitations so that we can create. She destroys the negative, so the positive can lead to a new beginning. Watch the magic and enigma that makes Kaali, the mother of all goddesses.

[img]https://i.imgur.com/rf0jvJY.png[/img]

Mahakaali.S01E01.Parvati's fateful vision!.WEBRip.720p.x264.KiSS.mp4
Episode 1 | 22 Jul 17

Parvati experiences a terrifying vision of a female warrior engaged in a bloody combat. Now Parvati is curious about discovering the identity of this warrior. The quest for this warrior becomes even more urgent for Parvati when she learns that the demons, Shumbh and Nishumbh are launching an attack on Kailash. Who is this warrior? What is the significance of the vision?


[img]https://i.imgur.com/NLlHbKJ.png[/img]

[img]https://i.imgur.com/f2a82Qj.png[/img]
[img]https://i.imgur.com/xpbB6e8.png[/img]
[img]https://i.imgur.com/luUgvcR.png[/img]
[img]https://i.imgur.com/ixdCx8Y.png[/img]
[img]https://i.imgur.com/jlFe9fk.png[/img]
[img]https://i.imgur.com/boMVSxt.png[/img]


[img]https://i.imgur.com/BwyumGr.png[/img]

[quote]
Format                      : MPEG-4
Format profile              : Base Media
Codec ID                    : isom (isom/avc1)
File size                   : 936 MiB
Duration                    : 59 min 55 s
Overall bit rate mode       : Variable
Overall bit rate            : 2 184 kb/s
Encoded date                : UTC 2017-10-05 07:41:56
Tagged date                 : UTC 2017-10-05 07:41:56

Video
ID                          : 1
Format                      : AVC
Format/Info                 : Advanced Video Codec
Format profile              : [email protected]
Format settings             : CABAC / 8 Ref Frames
Format settings, CABAC      : Yes
Format settings, RefFrames  : 8 frames
Codec ID                    : avc1
Codec ID/Info               : Advanced Video Coding
Duration                    : 59 min 55 s
Bit rate                    : 2 067 kb/s
Maximum bit rate            : 5 370 kb/s
Width                       : 1 280 pixels
Height                      : 720 pixels
Display aspect ratio        : 16:9
Frame rate mode             : Constant
Frame rate                  : 25.000 FPS
Color space                 : YUV
Chroma subsampling          : 4:2:0
Bit depth                   : 8 bits
Scan type                   : Progressive
Bits/(Pixel*Frame)          : 0.090
Stream size                 : 886 MiB (95%)
Writing library             : x264 core 148 r2721 72d53ab
Encoding settings           : cabac=1 / ref=8 / deblock=1:0:0 / analyse=0x3:0x133 / me=umh / subme=9 / psy=1 / psy_rd=1.00:0.00 / mixed_ref=1 / me_range=16 / chroma_me=1 / trellis=2 / 8x8dct=1 / cqm=0 / deadzone=21,11 / fast_pskip=1 / chroma_qp_offset=-2 / threads=6 / lookahead_threads=1 / sliced_threads=0 / nr=0 / decimate=1 / interlaced=0 / bluray_compat=0 / constrained_intra=0 / bframes=3 / b_pyramid=2 / b_adapt=2 / b_bias=0 / direct=3 / weightb=1 / open_gop=0 / weightp=2 / keyint=250 / keyint_min=25 / scenecut=40 / intra_refresh=0 / rc_lookahead=60 / rc=crf / mbtree=1 / crf=18.0 / qcomp=0.60 / qpmin=0 / qpmax=69 / qpstep=4 / ip_ratio=1.40 / aq=1:1.00
Encoded date                : UTC 2017-10-05 07:41:56
Tagged date                 : UTC 2017-10-05 07:42:19

Audio
ID                          : 2
Format                      : AAC
Format/Info                 : Advanced Audio Codec
Format profile              : LC
Codec ID                    : mp4a-40-2
Duration                    : 59 min 55 s
Bit rate mode               : Variable
Bit rate                    : 113 kb/s
Maximum bit rate            : 145 kb/s
Channel(s)                  : 2 channels
Channel positions           : Front: L R
Sampling rate               : 44.1 kHz
Frame rate                  : 43.066 FPS (1024 SPF)
Compression mode            : Lossy
Stream size                 : 48.5 MiB (5%)
Language                    : Hindi
Encoded date                : UTC 2017-10-05 06:15:05
Tagged date                 : UTC 2017-10-05 07:42:19
[/quote]


[img]https://i.imgur.com/JULzEFm.gif[/img]

Files list

- Mahakaali.S01E01.Parvati's fateful vision!.WEBRip.720p.x264.KiSS.mp4 File size : 935.92 MB

Disqus