Chat
Users Online
+ 17 Guests online in the last 24 hours.

Welcome to our newest member, AuausMalesserm
Ads
Torrent name: Mahakaali.S01E02.Mahakaali joins the battle!.WEBRip.720p.x264.KiSS.mp4
File size: 866.18 MB
Seeds: 6
Leechs: 0
Categories: TV HD
Torrent hash: faa2dfd6ba53fd3e0c78d937cf58e192e95a2fed
Social Share:
Uploader: [email protected]
Verified torrent:
    - udp://eddie4.nl:6969/announce
    - udp://tracker.torrent.eu.org:451/announce
    - udp://tracker.opentrackr.org:1337/announce
    - udp://tracker.internetwarriors.net:1337/announce
    - udp://tracker.coppersurfer.tk:6969/announce
    - udp://tracker.openbittorrent.com:80/announce
    - udp://11.rarbg.com:80/announce
    - udp://mgtracker.org:2710/announce
    - udp://tracker4.piratux.com:6969/announce
Download Mahakaali.S01E02.Mahakaali joins the battle!.WEBRip.720p.x264.KiSS.mp4
Download .torrent   Magnet Link
Torrent detail

Mahakaali.S01E02.Mahakaali joins the battle!.WEBRip.720p.x264.KiSS.mp4

If you like our Work Share this torrent with your Friends & Say Thanks..Seed a lot
& Like Our Page
www.facebook.com/KissToonTv

https://i.imgur.com/BjwntUo.jpg

Mahakali Anth Hi Aarambh Hai

Synopsis :-

If there is one goddess in our mythology who is feared and revered at the same time, it is Kaali. She is the ultimate destroyer. She destroys limitations so that we can create. She destroys the negative, so the positive can lead to a new beginning. Watch the magic and enigma that makes Kaali, the mother of all goddesses.

https://i.imgur.com/rf0jvJY.png

Mahakaali.S01E02.Mahakaali joins the battle!.WEBRip.720p.x264.KiSS.mp4
Episode 2 | 23 Jul 17 |

The demons are well on their way to win the battle against the Devas. But their triumph is short-lived when an enraged Parvati descends on the battleground in the form of Mahakaali and wreaks havoc on them. Now the only thing that stands between Mahakaali and victory is the mighty demon Raktabija. What is this demon's power? How will Mahakaali fight him?

https://i.imgur.com/NLlHbKJ.png


https://i.imgur.com/lDZHkTg.png
https://i.imgur.com/V8Yp6xM.png
https://i.imgur.com/OzDe4Z7.png
https://i.imgur.com/PjxCGfK.png
https://i.imgur.com/9yecuq1.png
https://i.imgur.com/02M4Xr8.png
https://i.imgur.com/J9ptg1w.png
https://i.imgur.com/FEK4GYg.png
https://i.imgur.com/YKb1PvR.png
https://i.imgur.com/yU0k9dF.png


https://i.imgur.com/BwyumGr.png


[quote]
Format                      : MPEG-4
Format profile              : Base Media
Codec ID                    : isom (isom/avc1)
File size                   : 866 MiB
Duration                    : 47 min 45 s
Overall bit rate mode       : Variable
Overall bit rate            : 2 536 kb/s
Encoded date                : UTC 2017-10-05 15:40:31
Tagged date                 : UTC 2017-10-05 15:40:31

Video
ID                          : 1
Format                      : AVC
Format/Info                 : Advanced Video Codec
Format profile              : [email protected]
Format settings             : CABAC / 8 Ref Frames
Format settings, CABAC      : Yes
Format settings, RefFrames  : 8 frames
Codec ID                    : avc1
Codec ID/Info               : Advanced Video Coding
Duration                    : 47 min 45 s
Bit rate                    : 2 330 kb/s
Maximum bit rate            : 6 790 kb/s
Width                       : 1 280 pixels
Height                      : 720 pixels
Display aspect ratio        : 16:9
Frame rate mode             : Constant
Frame rate                  : 25.000 FPS
Color space                 : YUV
Chroma subsampling          : 4:2:0
Bit depth                   : 8 bits
Scan type                   : Progressive
Bits/(Pixel*Frame)          : 0.101
Stream size                 : 796 MiB (92%)
Writing library             : x264 core 148 r2721 72d53ab
Encoding settings           : cabac=1 / ref=8 / deblock=1:0:0 / analyse=0x3:0x133 / me=umh / subme=9 / psy=1 / psy_rd=1.00:0.00 / mixed_ref=1 / me_range=16 / chroma_me=1 / trellis=2 / 8x8dct=1 / cqm=0 / deadzone=21,11 / fast_pskip=1 / chroma_qp_offset=-2 / threads=6 / lookahead_threads=1 / sliced_threads=0 / nr=0 / decimate=1 / interlaced=0 / bluray_compat=0 / constrained_intra=0 / bframes=3 / b_pyramid=2 / b_adapt=2 / b_bias=0 / direct=3 / weightb=1 / open_gop=0 / weightp=2 / keyint=250 / keyint_min=25 / scenecut=40 / intra_refresh=0 / rc_lookahead=60 / rc=crf / mbtree=1 / crf=18.0 / qcomp=0.60 / qpmin=0 / qpmax=69 / qpstep=4 / ip_ratio=1.40 / aq=1:1.00
Encoded date                : UTC 2017-10-05 15:40:31
Tagged date                 : UTC 2017-10-05 15:40:51

Audio #1
ID                          : 2
Format                      : AAC
Format/Info                 : Advanced Audio Codec
Format profile              : LC
Codec ID                    : mp4a-40-2
Duration                    : 47 min 45 s
Bit rate mode               : Variable
Bit rate                    : 101 kb/s
Maximum bit rate            : 128 kb/s
Channel(s)                  : 2 channels
Channel positions           : Front: L R
Sampling rate               : 44.1 kHz
Frame rate                  : 43.066 FPS (1024 SPF)
Compression mode            : Lossy
Stream size                 : 34.6 MiB (4%)
Language                    : Hindi
Encoded date                : UTC 2017-10-05 14:20:35
Tagged date                 : UTC 2017-10-05 15:40:51

Audio #2
ID                          : 3
Format                      : AAC
Format/Info                 : Advanced Audio Codec
Format profile              : LC
Codec ID                    : mp4a-40-2
Duration                    : 47 min 45 s
Bit rate mode               : Variable
Bit rate                    : 99.1 kb/s
Maximum bit rate            : 122 kb/s
Channel(s)                  : 2 channels
Channel positions           : Front: L R
Sampling rate               : 44.1 kHz
Frame rate                  : 43.066 FPS (1024 SPF)
Compression mode            : Lossy
Stream size                 : 33.9 MiB (4%)
Language                    : English
Encoded date                : UTC 2017-10-05 14:21:55
Tagged date                 : UTC 2017-10-05 15:40:51
[/quote]



https://i.imgur.com/JULzEFm.gif

Files list

- Mahakaali.S01E02.Mahakaali joins the battle!.WEBRip.720p.x264.KiSS.mp4 File size : 866.18 MB

Disqus