Chat
Users Online
+ 17 Guests online in the last 24 hours.

Welcome to our newest member, AuausMalesserm
Ads
Torrent name: The Notorious Bettie Page - La scandalosa vita di Bettie Page (2005).H264.italian.english.Ac3.sub.it
File size: 1019.44 MB
Seeds: 7
Leechs: 22
Categories: Movies SD
Torrent hash: 45f4a0284206ce9f69c7ebe2e107cfe95de04c72
Social Share:
Uploader: robbyrs
Verified torrent:
    - udp://tracker.coppersurfer.tk:6969/announce
    - udp://tracker.opentrackr.org:1337/announce
    - udp://tracker.leechers-paradise.org:6969/announce
    - udp://9.rarbg.com:2710/announce
    - udp://9.rarbg.to:2710/announce
    - udp://9.rarbg.me:2710/announce
    - udp://glotorrents.pw:6969/announce
    - udp://tracker.openbittorrent.com:80/announce
    - udp://tracker.pubt.net:2710/announce
    - udp://tracker.ilibr.org:6969/announce
    - udp://tracker.ilibr.org:80/announce
    - udp://zer0day.to:1337/announce
    - udp://tracker.zer0day.to:1337/announce
    - udp://p4p.arenabg.com:1337/announce
    - udp://p4p.arenabg.ch:1337/announce
    - udp://explodie.org:6969/announce
    - udp://eddie4.nl:6969/announce
Download The Notorious Bettie Page - La scandalosa vita di Bettie Page (2005).H264.italian.english.Ac3.sub.it
Download .torrent   Magnet Link
Torrent detail

The Notorious Bettie Page - La scandalosa vita di Bettie Page (2005).H264.italian.english.Ac3.sub.it

The Notorious Bettie Page - La scandalosa vita di Bettie Page (2005).H264.italian.english.Ac3.sub.ita.eng.fre.spa.iCV-MIRCrew

[center]

[color=red][b][img]https://s23.postimg.org/b9yhws27f/0sc_Del1.png[/img]
[u]NO FOUND ONLY ORIGINAL RELEASE[/u]

[img]https://worldimages.gallery/images/2017/09/02/4716a3153385da57f9bf0ad75d1cdd7a.gif[/img]

My release is always in double track audio italian and Original audio
for select it use VLC or dvd player home
not use wmp

La scandalosa vita di Bettie Page - The Notorious Bettie Page (2005)


[img]https://worldimages.gallery/images/2017/10/06/w.png[/img]

[URL=https://www.imdb.com/title/tt0404802/][IMG]https://www.userlogos.org/files/logos/Sucka/imdb_new.png[/IMG][/URL]

[img]https://i.imgur.com/fGu1rKv.png[/img]

Titolo originale     The Notorious Bettie Page
Lingua originale     inglese
Paese di produzione     USA
Anno     2005
Durata     91 min
Dati tecnici     B/N e a colori
rapporto: 1,85:1
Genere     biografico
Regia     Mary Harron
Sceneggiatura     Mary Harron
Guinevere Turner
Produttore     Christine Vachon, Pamela Koffler, Katie Roumel
Casa di produzione     HBO Films, Killer Films, IFC Films, John Wells Productions
Fotografia     W. Mott Hupfel III
Montaggio     Tricia Cooke
Musiche     Mark Suozzo
Scenografia     Gideon Ponte

[img]https://i.imgur.com/W7kBqiE.png[/img]


    Gretchen Mol: Bettie Page
    Molly Moore: Bettie da giovane
    Chris Bauer: Irving Klaw
    Jared Harris: John Willie
    Sarah Paulson: Bunny Yeager
    Cara Seymour: Maxie
    David Strathairn: Estes Kefauver
    Lili Taylor: Paula Klaw
    John Cullum: Nashville Preacher
    Matt McGrath: uomo nervoso
    Austin Pendleton: Insegnante
    Norman Reedus: Billy Neal
    Dallas Roberts: Scotty
    Alejandro Chabán: Armand


[img]https://i.imgur.com/bFK3ggF.png[/img]

La scandalosa vita di Bettie Page è un film biografico del 2005, diretto da Mary Harron, sulla pin-up e modella bondage Bettie Page, interpretata da Gretchen Mol.

Il film è stato presentato in anteprima al Toronto International Film Festival il 14 settembre 2005.

[img]https://i.imgur.com/48xHWWH.png[/img]

The life of Bettie Page, a 1950s pin-up model and one of the first sex icons in America, who became the target of a Senate investigation due to her risqué bondage photos.  

[img]https://i.imgur.com/K8bfNTy.png[/img]

[img]https://worldimages.gallery/images/2017/10/06/vlcsnap-2017-10-06-14h39m03s992.png[/img]

[url=https://worldimages.gallery/image/TsOlX][img]https://worldimages.gallery/images/2017/10/06/vlcsnap-2017-10-06-14h37m41s688.th.png[/img][/url] [url=https://worldimages.gallery/image/Tszon][img]https://worldimages.gallery/images/2017/10/06/vlcsnap-2017-10-06-14h37m56s236.th.png[/img][/url] [url=https://worldimages.gallery/image/Ts4u0][img]https://worldimages.gallery/images/2017/10/06/vlcsnap-2017-10-06-14h38m20s682.th.png[/img][/url] [url=https://worldimages.gallery/image/TsuLo][img]https://worldimages.gallery/images/2017/10/06/vlcsnap-2017-10-06-14h38m39s986.th.png[/img][/url]

[img]https://i.imgur.com/aVrMohH.png[/img]


[spoiler]
General
Unique ID                                : 187409886319789590591781868090233349602 (0x8CFDD4C91D10D5BE62727853052E65E2)
Complete name                            : La scandalosa vita di Bettie Page - The Notorious Bettie Page (2005).H264.ita.eng.sub.fre.spa.ita.iCV-MIRCrew.mkv
Format                                   : Matroska
Format version                           : Version 2
File size                                : 1 019 MiB
Duration                                 : 1h 26mn
Overall bit rate                         : 1 641 Kbps
Encoded date                             : UTC 2017-10-04T15:39:58Z
Writing application                      : HandBrake 0.10.5 2016021100
Writing library                          : Lavf55.12.0

Video
ID                                       : 1
Format                                   : AVC
Format/Info                              : Advanced Video Codec
Format profile                           : [email protected]
Format settings, CABAC                   : Yes
Format settings, ReFrames                : 4 frames
Codec ID                                 : V_MPEG4/ISO/AVC
Duration                                 : 1h 26mn
Bit rate                                 : 1 224 Kbps
Nominal bit rate                         : 1 290 Kbps
Width                                    : 688 pixels
Height                                   : 384 pixels
Display aspect ratio                     : 16:9
Frame rate mode                          : Variable
Frame rate                               : 30.000 fps
Color space                              : YUV
Chroma subsampling                       : 4:2:0
Bit depth                                : 8 bits
Scan type                                : Progressive
Bits/(Pixel*Frame)                       : 0.154
Stream size                              : 761 MiB (75%)
Writing library                          : x264 core 142 r2479 dd79a61
Encoding settings                        : cabac=1 / ref=1 / deblock=1:-1:-1 / analyse=0x1:0x111 / me=hex / subme=2 / psy=1 / psy_rd=1.00:0.15 / mixed_ref=0 / me_range=16 / chroma_me=1 / trellis=0 / 8x8dct=0 / cqm=0 / deadzone=21,11 / fast_pskip=1 / chroma_qp_offset=0 / threads=12 / lookahead_threads=3 / sliced_threads=0 / nr=0 / decimate=1 / interlaced=0 / bluray_compat=0 / constrained_intra=0 / bframes=3 / b_pyramid=2 / b_adapt=1 / b_bias=0 / direct=1 / weightb=1 / open_gop=0 / weightp=1 / keyint=300 / keyint_min=30 / scenecut=40 / intra_refresh=0 / rc_lookahead=10 / rc=abr / mbtree=1 / bitrate=1290 / ratetol=1.0 / qcomp=0.60 / qpmin=0 / qpmax=69 / qpstep=4 / vbv_maxrate=20000 / vbv_bufsize=25000 / nal_hrd=none / filler=0 / ip_ratio=1.40 / aq=1:1.00
Default                                  : Yes
Forced                                   : No
Color primaries                          : BT.709-5, BT.1361, IEC 61966-2-4, SMPTE RP177
Transfer characteristics                 : BT.709-5, BT.1361
Matrix coefficients                      : BT.709-5, BT.1361, IEC 61966-2-4 709, SMPTE RP177

Audio #1
ID                                       : 2
Format                                   : AC-3
Format/Info                              : Audio Coding 3
Mode extension                           : CM (complete main)
Codec ID                                 : A_AC3
Duration                                 : 1h 26mn
Bit rate mode                            : Constant
Bit rate                                 : 192 Kbps
Channel(s)                               : 2 channels
Channel positions                        : Front: L R
Sampling rate                            : 48.0 KHz
Bit depth                                : 16 bits
Compression mode                         : Lossy
Delay relative to video                  : 1mn 5s
Stream size                              : 119 MiB (12%)
Title                                    : Stereo
Language                                 : Italian
Default                                  : Yes
Forced                                   : No

Audio #2
ID                                       : 3
Format                                   : AC-3
Format/Info                              : Audio Coding 3
Mode extension                           : CM (complete main)
Codec ID                                 : A_AC3
Duration                                 : 1h 26mn
Bit rate mode                            : Constant
Bit rate                                 : 192 Kbps
Channel(s)                               : 2 channels
Channel positions                        : Front: L R
Sampling rate                            : 48.0 KHz
Bit depth                                : 16 bits
Compression mode                         : Lossy
Delay relative to video                  : 1mn 5s
Stream size                              : 119 MiB (12%)
Title                                    : Stereo
Language                                 : English
Default                                  : No
Forced                                   : No



[/spoiler]

[/color][/b][/center]

Files list

- La scandalosa vita di Bettie Page - The Notorious Bettie Page (2005).H264.ita.eng.sub.fre.spa.ita.iCV-MIRCrew.mkv File size : 1019.44 MB
- La scandalosa vita di Bettie Page - The Notorious Bettie Page (2005).H264.ita.eng.sub.fre.spa.ita.iCV-MIRCrew.srt File size : 90 B
- www.icv-crew.org.txt File size : 78 B

Disqus