Chat
Users Online
+ 17 Guests online in the last 24 hours.

Welcome to our newest member, AdiusEment
Ads
Torrent name: Marvels.Inhumans.S01E03.HDTV.x264.E-subs.KiSS.mkv
File size: 381.63 MB
Seeds: 15
Leechs: 32
Categories: TV HD
Torrent hash: 44ab42aa2922d7144e245e46050b5079f5de2891
Social Share:
Uploader: [email protected]
Verified torrent:
    - udp://eddie4.nl:6969/announce
    - udp://tracker.torrent.eu.org:451/announce
    - udp://tracker.opentrackr.org:1337/announce
    - udp://tracker.internetwarriors.net:1337/announce
    - udp://tracker.coppersurfer.tk:6969/announce
    - udp://tracker.openbittorrent.com:80/announce
    - udp://11.rarbg.com:80/announce
    - udp://mgtracker.org:2710/announce
    - udp://tracker4.piratux.com:6969/announce
Download Marvels.Inhumans.S01E03.HDTV.x264.E-subs.KiSS.mkv
Download .torrent   Magnet Link
Torrent detail

Marvels.Inhumans.S01E03.HDTV.x264.E-subs.KiSS.mkv


General

Unique ID : 188699869619641640689259048898934308478 (0x8DF645DF696BA134B1F3AE4A4D937E7E)
Complete name : Marvels.Inhumans.S01E03.HDTV.x264.E-subs.KiSS.mkv
Format : Matroska
Format version : Version 4 / Version 2
File size : 382 MiB
Duration : 41 min 15 s
Overall bit rate mode : Variable
Overall bit rate : 1 293 kb/s
Encoded date : UTC 2017-10-07 07:35:33
Writing application : mkvmerge v16.0.0 ('Protest') 64-bit
Writing library : libebml v1.3.5 + libmatroska v1.4.8

Video

ID : 1
Format : AVC
Format/Info : Advanced Video Codec
Format profile : [email protected]
Format settings : CABAC / 5 Ref Frames
Format settings, CABAC : Yes
Format settings, RefFrames : 5 frames
Codec ID : V_MPEG4/ISO/AVC
Duration : 41 min 15 s
Bit rate mode : Variable
Bit rate : 1 202 kb/s
Maximum bit rate : 40.0 Mb/s
Width : 720 pixels
Height : 400 pixels
Display aspect ratio : 16:9
Frame rate mode : Constant
Frame rate : 23.976 (24000/1001) FPS
Color space : YUV
Chroma subsampling : 4:2:0
Bit depth : 8 bits
Scan type : Progressive
Bits/(Pixel*Frame) : 0.174
Stream size : 355 MiB (93%)
Writing library : x264 core 148 r2721 72d53ab
Encoding settings : cabac=1 / ref=6 / deblock=1:0:0 / analyse=0x3:0x133 / me=umh / subme=9 / psy=1 / psy_rd=1.00:0.00 / mixed_ref=1 / me_range=16 / chroma_me=1 / trellis=2 / 8x8dct=1 / cqm=0 / deadzone=21,11 / fast_pskip=1 / chroma_qp_offset=-2 / threads=6 / lookahead_threads=1 / sliced_threads=0 / slices=4 / nr=0 / decimate=1 / interlaced=0 / bluray_compat=1 / constrained_intra=0 / bframes=3 / b_pyramid=1 / b_adapt=2 / b_bias=0 / direct=3 / weightb=1 / open_gop=0 / weightp=1 / keyint=48 / keyint_min=1 / scenecut=40 / intra_refresh=0 / rc_lookahead=48 / rc=crf / mbtree=1 / crf=18.0 / qcomp=0.60 / qpmin=0 / qpmax=69 / qpstep=4 / vbv_maxrate=40000 / vbv_bufsize=30000 / crf_max=0.0 / nal_hrd=vbr / filler=0 / ip_ratio=1.40 / aq=1:1.00
Language : English
Default : Yes
Forced : No

Audio

ID : 2
Format : AAC
Format/Info : Advanced Audio Codec
Format profile : LC
Codec ID : A_AAC-2
Duration : 41 min 15 s
Bit rate : 88.8 kb/s
Channel(s) : 2 channels
Channel positions : Front: L R
Sampling rate : 48.0 kHz
Frame rate : 46.875 FPS (1024 SPF)
Compression mode : Lossy
Delay relative to video : 9 ms
Stream size : 26.2 MiB (7%)
Language : English
Default : Yes
Forced : No

Text

ID : 3
Format : UTF-8
Codec ID : S_TEXT/UTF8
Codec ID/Info : UTF-8 Plain Text
Duration : 41 min 4 s
Bit rate : 50 b/s
Count of elements : 519
Stream size : 15.3 KiB (0%)
Language : English
Default : Yes
Forced : Yes

https://imgur.com/a/HpYIi      -    sCREENS

Files list

- Marvels.Inhumans.S01E03.HDTV.x264.E-subs.KiSS.mkv File size : 381.63 MB

Disqus