Chat
Users Online
+ 17 Guests online in the last 24 hours.

Welcome to our newest member, AuausMalesserm
Ads
Torrent name: Sister Emanuelle - Suor Emanuelle (1977) +Bonus 10m. Deleted Scenes.H264.italian.english.Ac3.sub.ita
File size: 1.18 GB
Seeds: 32
Leechs: 243
Categories: Movies SD
Torrent hash: d35a78eb967ce77865e2f13b757dcbdd8c1303d8
Social Share:
Uploader: robbyrs
Verified torrent:
    - udp://tracker.coppersurfer.tk:6969/announce
    - udp://tracker.opentrackr.org:1337/announce
    - udp://tracker.leechers-paradise.org:6969/announce
    - udp://9.rarbg.com:2710/announce
    - udp://9.rarbg.to:2710/announce
    - udp://9.rarbg.me:2710/announce
    - udp://glotorrents.pw:6969/announce
    - udp://tracker.openbittorrent.com:80/announce
    - udp://tracker.pubt.net:2710/announce
    - udp://tracker.ilibr.org:6969/announce
    - udp://tracker.ilibr.org:80/announce
    - udp://zer0day.to:1337/announce
    - udp://tracker.zer0day.to:1337/announce
    - udp://p4p.arenabg.com:1337/announce
    - udp://p4p.arenabg.ch:1337/announce
    - udp://explodie.org:6969/announce
    - udp://eddie4.nl:6969/announce
Download Sister Emanuelle - Suor Emanuelle (1977) +Bonus 10m. Deleted Scenes.H264.italian.english.Ac3.sub.ita
Download .torrent   Magnet Link
Torrent detail

Sister Emanuelle - Suor Emanuelle (1977) +Bonus 10m. Deleted Scenes.H264.italian.english.Ac3.sub.ita

Sister Emanuelle - Suor Emanuelle (1977) +Bonus 10m. Deleted Scenes.H264.italian.english.Ac3.sub.ita.sub.eng.iCV-MIRCrew

[center]

[color=red][b][img]https://s23.postimg.org/b9yhws27f/0sc_Del1.png[/img]
[u]NO FOUND ONLY ORIGINAL RELEASE[/u]

[img]https://worldimages.gallery/images/2017/09/02/4716a3153385da57f9bf0ad75d1cdd7a.gif[/img]

My release is always in double track audio italian and Original audio
for select it use VLC or dvd player home
not use wmp

Suor Emanuelle - Sister Emanuelle (1977) +10 m. Bonus Deleted Scenes


[img]https://worldimages.gallery/images/2017/10/07/w.png[/img]

[URL=https://www.imdb.com/title/tt0078344/][IMG]https://www.userlogos.org/files/logos/Sucka/imdb_new.png[/IMG][/URL]

[img]https://i.imgur.com/fGu1rKv.png[/img]

Paese di produzione     Italia
Anno     1977
Durata     89 min
Genere     erotico
Regia     Joseph Warren (Giuseppe Vari)
Soggetto     Mario Gariazzo,
Ambrogio Molteni
Sceneggiatura     Marino Onorati
Produttore     Mario Mariani
Casa di produzione     MEN Cinematografica Production
Fotografia     Guglielmo Mancori
Montaggio     Giuseppe Vari
Musiche     Stelvio Cipriani
Scenografia     Roberta Tomassetti
Costumi     Roberta Tomassetti
Trucco     Raffaele Cristini

[img]https://i.imgur.com/W7kBqiE.png[/img]


    Laura Gemser: suor Emanuelle
    Gabriele Tinti: bandito Renè
    Monica Zanchi: Monica Cazzabriga
    Dirce Funari: matrigna Kris
    Patrizia Sacchi: madre superiora
    Vinja Locatelli: Anna Celestini
    Rick Battaglia: commendator Cazzabriga
    Pia Velsi: suor Nanà
    Mario De Vico: giardiniere Gerolamo Collegno


[img]https://i.imgur.com/bFK3ggF.png[/img]

Monica è la figlia d'un ricco commendatore. Un giorno questi la sorprende mentre sta amoreggiando con la matrigna Kris e decide di mandarla in un collegio di suore, e..............

[img]https://i.imgur.com/48xHWWH.png[/img]

Renouncing her "sinful" past, Emanuelle has entered a convent and has dedicated herself to a life of service. Enter Monika, the free-spirited, free-loving daughter of a wealthy Baron. ... .

[img]https://i.imgur.com/K8bfNTy.png[/img]

[url=https://worldimages.gallery/image/TuqFQ][img]https://worldimages.gallery/images/2017/10/07/vlcsnap-2017-10-07-09h54m08s867.th.png[/img][/url] [url=https://worldimages.gallery/image/Tu9MK][img]https://worldimages.gallery/images/2017/10/07/vlcsnap-2017-10-07-09h54m23s217.th.png[/img][/url] [url=https://worldimages.gallery/image/TuOR7][img]https://worldimages.gallery/images/2017/10/07/vlcsnap-2017-10-07-09h54m28s520.th.png[/img][/url] [url=https://worldimages.gallery/image/Tuzrk][img]https://worldimages.gallery/images/2017/10/07/vlcsnap-2017-10-07-09h54m52s684.th.png[/img][/url] [url=https://worldimages.gallery/image/TusI8][img]https://worldimages.gallery/images/2017/10/07/vlcsnap-2017-10-07-09h55m20s959.th.png[/img][/url]

[img]https://i.imgur.com/aVrMohH.png[/img]


[spoiler]
General
Unique ID                                : 171557361690640589123238963079760042454 (0x8110BEFA3FED67F14F615A3C5EB3D9D6)
Complete name                            : Suor Emanuelle - Sister Emanuelle (1977) +Bonus Deleted Scenes.H264.ita.eng.sub.eng.iCV-MIRCrewSuor Emanuelle - Sister Emanuelle (1977)-H264.ita.eng.sub.eng.iCV-MIRCrew.mkv
Format                                   : Matroska
Format version                           : Version 2
File size                                : 1.08 GiB
Duration                                 : 1h 31mn
Overall bit rate                         : 1 685 Kbps
Encoded date                             : UTC 2017-10-04T20:26:54Z
Writing application                      : HandBrake 0.10.5 2016021100
Writing library                          : Lavf55.12.0

Video
ID                                       : 1
Format                                   : AVC
Format/Info                              : Advanced Video Codec
Format profile                           : [email protected]
Format settings, CABAC                   : Yes
Format settings, ReFrames                : 4 frames
Codec ID                                 : V_MPEG4/ISO/AVC
Duration                                 : 1h 31mn
Bit rate                                 : 1 290 Kbps
Width                                    : 720 pixels
Height                                   : 404 pixels
Display aspect ratio                     : 16:9
Frame rate mode                          : Variable / Variable
Frame rate                               : 23.976 fps
Color space                              : YUV
Chroma subsampling                       : 4:2:0
Bit depth                                : 8 bits
Scan type                                : Progressive
Bits/(Pixel*Frame)                       : 0.185
Stream size                              : 834 MiB (75%)
Writing library                          : x264 core 142 r2479 dd79a61
Encoding settings                        : cabac=1 / ref=1 / deblock=1:-1:-1 / analyse=0x1:0x111 / me=hex / subme=2 / psy=1 / psy_rd=1.00:0.15 / mixed_ref=0 / me_range=16 / chroma_me=1 / trellis=0 / 8x8dct=0 / cqm=0 / deadzone=21,11 / fast_pskip=1 / chroma_qp_offset=0 / threads=12 / lookahead_threads=3 / sliced_threads=0 / nr=0 / decimate=1 / interlaced=0 / bluray_compat=0 / constrained_intra=0 / bframes=3 / b_pyramid=2 / b_adapt=1 / b_bias=0 / direct=1 / weightb=1 / open_gop=0 / weightp=1 / keyint=240 / keyint_min=24 / scenecut=40 / intra_refresh=0 / rc_lookahead=10 / rc=abr / mbtree=1 / bitrate=1290 / ratetol=1.0 / qcomp=0.60 / qpmin=0 / qpmax=69 / qpstep=4 / vbv_maxrate=20000 / vbv_bufsize=25000 / nal_hrd=none / filler=0 / ip_ratio=1.40 / aq=1:1.00
Default                                  : Yes
Forced                                   : No
Color primaries                          : BT.601-6 525, BT.1358 525, BT.1700 NTSC, SMPTE 170M
Transfer characteristics                 : BT.709-5, BT.1361
Matrix coefficients                      : BT.601-6 525, BT.1358 525, BT.1700 NTSC, SMPTE 170M

Audio #1
ID                                       : 2
Format                                   : AC-3
Format/Info                              : Audio Coding 3
Mode extension                           : CM (complete main)
Codec ID                                 : A_AC3
Duration                                 : 1h 31mn
Bit rate mode                            : Constant
Bit rate                                 : 192 Kbps
Channel(s)                               : 2 channels
Channel positions                        : Front: L R
Sampling rate                            : 48.0 KHz
Bit depth                                : 16 bits
Compression mode                         : Lossy
Delay relative to video                  : 1mn 5s
Stream size                              : 126 MiB (11%)
Title                                    : Stereo
Language                                 : Italian
Default                                  : Yes
Forced                                   : No

Audio #2
ID                                       : 3
Format                                   : AC-3
Format/Info                              : Audio Coding 3
Mode extension                           : CM (complete main)
Codec ID                                 : A_AC3
Duration                                 : 1h 31mn
Bit rate mode                            : Constant
Bit rate                                 : 192 Kbps
Channel(s)                               : 2 channels
Channel positions                        : Front: L R
Sampling rate                            : 48.0 KHz
Bit depth                                : 16 bits
Compression mode                         : Lossy
Delay relative to video                  : 1mn 5s
Stream size                              : 126 MiB (11%)
Title                                    : Stereo
Language                                 : English
Default                                  : No
Forced                                   : No

Text
ID                                       : 4
Format                                   : VobSub
Codec ID                                 : S_VOBSUB
Codec ID/Info                            : The same subtitle format used on DVDs
Language                                 : English
Default                                  : No
Forced                                   : No

Menu
00:00:00.000                             : :Chapter 1
00:05:48.231                             : :Chapter 2
00:12:53.789                             : :Chapter 3
00:16:11.003                             : :Chapter 4
00:21:54.897                             : :Chapter 5
00:26:34.709                             : :Chapter 6
00:32:18.353                             : :Chapter 7
00:36:45.620                             : :Chapter 8
00:43:29.957                             : :Chapter 9
00:47:50.751                             : :Chapter 10
00:54:15.268                             : :Chapter 11
01:02:05.305                             : :Chapter 12
01:08:42.702                             : :Chapter 13
01:15:39.318                             : :Chapter 14
01:24:13.898                             : :Chapter 15
01:30:12.123                             : :Chapter 16



[/spoiler]

[/color][/b][/center]

Files list

- 0scDel1.png File size : 315.76 KB
- Deleted scenes 1.mkv File size : 32.49 MB
- Deleted scenes 2.mkv File size : 25.52 MB
- Deleted scenes 3.mkv File size : 38.96 MB
- Suor Emanuelle - Sister Emanuelle (1977)-H264.ita.eng.sub.eng.iCV-MIRCrew.mkv File size : 1.08 GB
- Suor Emanuelle - Sister Emanuelle (1977)-H264.ita.eng.sub.eng.iCV-MIRCrew.srt File size : 90 B
- Suor Emanuelle - Sister Emanuelle (1977)-H264.ita.eng.sub.eng.iCV-MIRCrew_track4_eng.idx File size : 28.71 KB
- Suor Emanuelle - Sister Emanuelle (1977)-H264.ita.eng.sub.eng.iCV-MIRCrew_track4_eng.sub File size : 2.15 MB
- www.icv-crew.org.txt File size : 78 B

Disqus