Chat
Users Online
+ 17 Guests online in the last 24 hours.

Welcome to our newest member, AuausMalesserm
Ads
Torrent name: Zombi Holocaust - Doctor Butcher - La regina dei Cannibali (1980).H264.italian.english.Ac3.sub.ita.i
File size: 1.04 GB
Seeds: 8
Leechs: 26
Categories: Apps
Torrent hash: 4b5d0343af463b7f2d54d3fddc8e29f224f0d8b6
Social Share:
Uploader: robbyrs
Verified torrent:
    - udp://tracker.coppersurfer.tk:6969/announce
    - udp://tracker.opentrackr.org:1337/announce
    - udp://tracker.leechers-paradise.org:6969/announce
    - udp://9.rarbg.com:2710/announce
    - udp://9.rarbg.to:2710/announce
    - udp://9.rarbg.me:2710/announce
    - udp://glotorrents.pw:6969/announce
    - udp://tracker.openbittorrent.com:80/announce
    - udp://tracker.pubt.net:2710/announce
    - udp://tracker.ilibr.org:6969/announce
    - udp://tracker.ilibr.org:80/announce
    - udp://zer0day.to:1337/announce
    - udp://tracker.zer0day.to:1337/announce
    - udp://p4p.arenabg.com:1337/announce
    - udp://p4p.arenabg.ch:1337/announce
    - udp://explodie.org:6969/announce
    - udp://eddie4.nl:6969/announce
Download Zombi Holocaust - Doctor Butcher - La regina dei Cannibali (1980).H264.italian.english.Ac3.sub.ita.i
Download .torrent   Magnet Link
Torrent detail

Zombi Holocaust - Doctor Butcher - La regina dei Cannibali (1980).H264.italian.english.Ac3.sub.ita.i

Zombi Holocaust - Doctor Butcher - La regina dei Cannibali (1980).H264.italian.english.Ac3.sub.ita.iCV-MIRCrew

[center]

[color=red][b][img]https://s23.postimg.org/b9yhws27f/0sc_Del1.png[/img]
[u]NO FOUND ONLY ORIGINAL RELEASE[/u]

[img]https://worldimages.gallery/images/2017/09/02/4716a3153385da57f9bf0ad75d1cdd7a.gif[/img]

My release is always in double track audio italian and Original audio
for select it use VLC or dvd player home
not use wmp

Zombi Holocaust (1980)

[img]https://s19.postimg.org/locwujj2b/image.png[/img]

[URL=https://www.imdb.com/title/tt0079788/][IMG]https://www.userlogos.org/files/logos/Sucka/imdb_new.png[/IMG][/URL]

[img]https://i.imgur.com/fGu1rKv.png[/img]

Titolo originale     Zombi Holocaust
Lingua originale     inglese
Paese di produzione     Italia
Anno     1980
Durata     87 min
Genere     orrore
Regia     Marino Girolami
Soggetto     Fabrizio De Angelis
Sceneggiatura     Romano Scandariato
Produttore     Gianfranco Couyoumdjian, Fabrizio De Angelis
Casa di produzione     Flora Film, Fulvia Film, Gico Cinematografica
Fotografia     Fausto Zuccoli
Montaggio     Alberto Moriani
Effetti speciali     Claudio Battistelli, Roberto Pace
Musiche     Nico Fidenco
Scenografia     Walter Patriarca
Costumi     Silvana Scandariato
Trucco     Maurizio Trani, Rosario Prestopino

[img]https://i.imgur.com/W7kBqiE.png[/img]


    Ian McCulloch: Peter Chandler
    Alexandra Delli Colli: Lori Ridgeway
    Sherry Buchanan: Susan Kelly
    Peter O'Neal: George Happer
    Donald O'Brien: dottor O'Brien
    Dakar: Moloto
    Walter Patriarca: professor Drydock
    Linda Fumis: studentessa di medicina
    Roberto Resta:


[img]https://i.imgur.com/bFK3ggF.png[/img]

New York: un chirurgo, professore universitario di medicina, e la sua bella assistente Lori colgono in flagrante un infermiere asiatico, Turan, nel commettere atti di cannibalismo su dei cadaveri. Appena costui viene scoperto si getta dalla finestra

[img]https://i.imgur.com/48xHWWH.png[/img]

The members of an expedition in search for the last faithful of Kito, the cannibal god, land on a small island in the Moluccas (East Indies) and are soon hunted by cannibals and zombies, these being created by a sinister Doctor O'Brien who is experimenting with corpses. Suzan, a sexy lady in the expedition team,.

[img]https://i.imgur.com/K8bfNTy.png[/img]

[url=http://postimg.org/image/o5oo1y0fj/][img]https://s19.postimg.org/o5oo1y0fj/vlcsnap-2017-10-07-12h24m15s189.png[/img][/url]

[url=http://postimg.org/image/50les6e1r/][img]https://s19.postimg.org/50les6e1r/vlcsnap-2017-10-07-12h24m21s033.png[/img][/url]

[url=http://postimg.org/image/d63gqbukv/][img]https://s19.postimg.org/d63gqbukv/vlcsnap-2017-10-07-12h24m32s626.png[/img][/url]

[url=http://postimg.org/image/qzrtfeabj/][img]https://s19.postimg.org/qzrtfeabj/vlcsnap-2017-10-07-12h24m41s734.png[/img][/url]

[url=http://postimg.org/image/3lju3h03z/][img]https://s19.postimg.org/3lju3h03z/vlcsnap-2017-10-07-12h25m19s208.png[/img][/url]



[img]https://i.imgur.com/aVrMohH.png[/img]


[spoiler]
General
Unique ID                                : 232097496679806669335695916760836790726 (0xAE9C5A15492AC9A7B23888A46CE6D9C6)
Complete name                            : Zombi Holocaust (1980).H264.ita.eng.iCV-MIRCrewZombi Holocaust (1980).H264.ita.eng.iCV-MIRCrew.mkv
Format                                   : Matroska
Format version                           : Version 2
File size                                : 1.04 GiB
Duration                                 : 1h 28mn
Overall bit rate                         : 1 674 Kbps
Movie name                               : Zombi Holocaust (1980).H264.ita.eng.iCV-MIRCrew
Encoded date                             : UTC 2017-10-03T16:02:46Z
Writing application                      : mkvmerge v5.4.0 ('Piper') built on Mar 10 2012 13:34:39
Writing library                          : Lavf55.12.0

Video
ID                                       : 1
Format                                   : AVC
Format/Info                              : Advanced Video Codec
Format profile                           : [email protected]
Format settings, CABAC                   : Yes
Format settings, ReFrames                : 4 frames
Muxing mode                              : Header stripping
Codec ID                                 : V_MPEG4/ISO/AVC
Duration                                 : 1h 28mn
Bit rate                                 : 1 290 Kbps
Width                                    : 688 pixels
Height                                   : 384 pixels
Display aspect ratio                     : 16:9
Frame rate mode                          : Variable / Variable
Frame rate                               : 23.976 fps
Color space                              : YUV
Chroma subsampling                       : 4:2:0
Bit depth                                : 8 bits
Scan type                                : Progressive
Bits/(Pixel*Frame)                       : 0.204
Stream size                              : 799 MiB (75%)
Title                                    : Zombi Holocaust (1980).H264.ita.eng.iCV-MIRCrew
Writing library                          : x264 core 142 r2479 dd79a61
Encoding settings                        : cabac=1 / ref=1 / deblock=1:-1:-1 / analyse=0x1:0x111 / me=hex / subme=2 / psy=1 / psy_rd=1.00:0.15 / mixed_ref=0 / me_range=16 / chroma_me=1 / trellis=0 / 8x8dct=0 / cqm=0 / deadzone=21,11 / fast_pskip=1 / chroma_qp_offset=0 / threads=12 / lookahead_threads=3 / sliced_threads=0 / nr=0 / decimate=1 / interlaced=0 / bluray_compat=0 / constrained_intra=0 / bframes=3 / b_pyramid=2 / b_adapt=1 / b_bias=0 / direct=1 / weightb=1 / open_gop=0 / weightp=1 / keyint=240 / keyint_min=24 / scenecut=40 / intra_refresh=0 / rc_lookahead=10 / rc=abr / mbtree=1 / bitrate=1290 / ratetol=1.0 / qcomp=0.60 / qpmin=0 / qpmax=69 / qpstep=4 / vbv_maxrate=20000 / vbv_bufsize=25000 / nal_hrd=none / filler=0 / ip_ratio=1.40 / aq=1:1.00
Language                                 : Italian
Default                                  : Yes
Forced                                   : No
Color primaries                          : BT.709-5, BT.1361, IEC 61966-2-4, SMPTE RP177
Transfer characteristics                 : BT.709-5, BT.1361
Matrix coefficients                      : BT.709-5, BT.1361, IEC 61966-2-4 709, SMPTE RP177

Audio #1
ID                                       : 2
Format                                   : AC-3
Format/Info                              : Audio Coding 3
Mode extension                           : CM (complete main)
Muxing mode                              : Header stripping
Codec ID                                 : A_AC3
Duration                                 : 1h 28mn
Bit rate mode                            : Constant
Bit rate                                 : 192 Kbps
Channel(s)                               : 2 channels
Channel positions                        : Front: L R
Sampling rate                            : 48.0 KHz
Bit depth                                : 16 bits
Compression mode                         : Lossy
Delay relative to video                  : -5ms
Stream size                              : 122 MiB (11%)
Title                                    : Ita
Language                                 : Italian
Default                                  : Yes
Forced                                   : No

Audio #2
ID                                       : 3
Format                                   : AC-3
Format/Info                              : Audio Coding 3
Mode extension                           : CM (complete main)
Muxing mode                              : Header stripping
Codec ID                                 : A_AC3
Duration                                 : 1h 28mn
Bit rate mode                            : Constant
Bit rate                                 : 192 Kbps
Channel(s)                               : 2 channels
Channel positions                        : Front: L R
Sampling rate                            : 48.0 KHz
Bit depth                                : 16 bits
Compression mode                         : Lossy
Delay relative to video                  : -5ms
Stream size                              : 122 MiB (11%)
Title                                    : Eng
Language                                 : English
Default                                  : No
Forced                                   : No

Text
ID                                       : 4
Format                                   : UTF-8
Codec ID                                 : S_TEXT/UTF8
Codec ID/Info                            : UTF-8 Plain Text
Default                                  : Yes
Forced                                   : No

Menu
00:00:00.000                             : :00:00:00.000
00:10:36.051                             : :00:10:35.885
00:24:55.910                             : :00:24:55.744
00:34:32.611                             : :00:34:32.445
00:42:03.436                             : :00:42:03.229
00:54:52.872                             : :00:54:52.706
01:03:36.436                             : :01:03:36.229
01:15:32.485                             : :01:15:32.278
01:27:37.626                             : :01:27:37.335



[/spoiler]

[/color][/b][/center]


Files list

- Visitate www.icv-crew.org.txt File size : 113 B
- Zombi Holocaust (1980).H264.ita.eng.iCV-MIRCrew.mkv File size : 1.04 GB
- Zombi Holocaust (1980).H264.ita.eng.iCV-MIRCrew.srt File size : 90 B

Disqus