Chat
Users Online
+ 17 Guests online in the last 24 hours.

Welcome to our newest member, AuausMalesserm
Ads
Torrent name: Per sempre - Ein Toter kehrt zurück (1986).H264.italian.german.Ac3.iCV-MIRCrew
File size: 1.1 GB
Seeds: 9
Leechs: 6
Categories: Movies SD
Torrent hash: 0224ee14ebcf447aa9a285360e8d75e24471c5cf
Social Share:
Uploader: robbyrs
Verified torrent:
    - udp://tracker.coppersurfer.tk:6969/announce
    - udp://tracker.opentrackr.org:1337/announce
    - udp://tracker.leechers-paradise.org:6969/announce
    - udp://9.rarbg.com:2710/announce
    - udp://9.rarbg.to:2710/announce
    - udp://9.rarbg.me:2710/announce
    - udp://glotorrents.pw:6969/announce
    - udp://tracker.openbittorrent.com:80/announce
    - udp://tracker.pubt.net:2710/announce
    - udp://tracker.ilibr.org:6969/announce
    - udp://tracker.ilibr.org:80/announce
    - udp://zer0day.to:1337/announce
    - udp://tracker.zer0day.to:1337/announce
    - udp://p4p.arenabg.com:1337/announce
    - udp://p4p.arenabg.ch:1337/announce
    - udp://explodie.org:6969/announce
    - udp://eddie4.nl:6969/announce
Download Per sempre - Ein Toter kehrt zurück (1986).H264.italian.german.Ac3.iCV-MIRCrew
Download .torrent   Magnet Link
Torrent detail

Per sempre - Ein Toter kehrt zurück (1986).H264.italian.german.Ac3.iCV-MIRCrew

Per sempre - Ein Toter kehrt zurück (1986).H264.italian.german.Ac3.iCV-MIRCrew

[center]

[color=red][b][img]https://s23.postimg.org/b9yhws27f/0sc_Del1.png[/img]
[u]NO FOUND ONLY ORIGINAL RELEASE[/u]

[img]https://worldimages.gallery/images/2017/09/02/4716a3153385da57f9bf0ad75d1cdd7a.gif[/img]

My release is always in double track audio italian and Original audio
for select it use VLC or dvd player home
not use wmp

Per sempre - Ein Toter kehrt zurück (1986)


[img]https://worldimages.gallery/images/2017/10/08/w.png[/img]

[URL=https://www.imdb.com/title/tt0094225/][IMG]https://www.userlogos.org/files/logos/Sucka/imdb_new.png[/IMG][/URL]

[img]https://i.imgur.com/fGu1rKv.png[/img]

Un film di Lamberto Bava
Genere: Horror, Drammatico
durata 96 min.
Italia 1986

[img]https://i.imgur.com/W7kBqiE.png[/img]

Gioia Scola, David Brandon, Urbano Barberini, Stefano De Sando, Roberto Pedicini.

[img]https://i.imgur.com/bFK3ggF.png[/img]

Linda ha eliminato il marito sbarazzandosi del corpo. Ora la donna gestisce una locanda e in una notte di tempesta un misterioso viaggiatore si presenta alla sua porta.......

[img]https://i.imgur.com/48xHWWH.png[/img]

A sort of remake of "The Postman always ring twice", set in Italy, and with a horror twist at the end: the murdered husband comes back as a living dead looking for revenge...

[img]https://i.imgur.com/K8bfNTy.png[/img]

[img]https://worldimages.gallery/images/2017/10/08/vlcsnap-2017-10-08-11h26m46s158.png[/img]

[url=https://worldimages.gallery/image/TxEak][img]https://worldimages.gallery/images/2017/10/08/vlcsnap-2017-10-08-11h26m14s798.th.png[/img][/url] [url=https://worldimages.gallery/image/TxWU8][img]https://worldimages.gallery/images/2017/10/08/vlcsnap-2017-10-08-11h26m38s675.th.png[/img][/url] [url=https://worldimages.gallery/image/TxH0P][img]https://worldimages.gallery/images/2017/10/08/vlcsnap-2017-10-08-11h27m06s700.th.png[/img][/url] [url=https://worldimages.gallery/image/TxPBT][img]https://worldimages.gallery/images/2017/10/08/vlcsnap-2017-10-08-11h27m17s423.th.png[/img][/url] [url=https://worldimages.gallery/image/TxfJ4][img]https://worldimages.gallery/images/2017/10/08/vlcsnap-2017-10-08-11h28m38s744.th.png[/img][/url]

[img]https://i.imgur.com/aVrMohH.png[/img]


[spoiler]
General
Unique ID                                : 270100327565907757357379045954144209208 (0xCB336E4E77550154EE8094426AE48938)
Complete name                            : Per sempre - Back from Hell - Ein Toter kehrt zurück (1986).H264.ita.ger.iCV-MIRCrew.mkv
Format                                   : Matroska
Format version                           : Version 2
File size                                : 1.09 GiB
Duration                                 : 1h 33mn
Overall bit rate                         : 1 683 Kbps
Encoded date                             : UTC 2017-10-01T10:04:01Z
Writing application                      : HandBrake 0.10.5 2016021100
Writing library                          : Lavf55.12.0

Video
ID                                       : 1
Format                                   : AVC
Format/Info                              : Advanced Video Codec
Format profile                           : [email protected]
Format settings, CABAC                   : Yes
Format settings, ReFrames                : 4 frames
Codec ID                                 : V_MPEG4/ISO/AVC
Duration                                 : 1h 33mn
Bit rate                                 : 1 290 Kbps
Width                                    : 704 pixels
Height                                   : 432 pixels
Display aspect ratio                     : 1.630
Frame rate mode                          : Variable
Frame rate                               : 25.000 fps
Color space                              : YUV
Chroma subsampling                       : 4:2:0
Bit depth                                : 8 bits
Scan type                                : Progressive
Bits/(Pixel*Frame)                       : 0.170
Stream size                              : 843 MiB (75%)
Writing library                          : x264 core 142 r2479 dd79a61
Encoding settings                        : cabac=1 / ref=1 / deblock=1:-1:-1 / analyse=0x1:0x111 / me=hex / subme=2 / psy=1 / psy_rd=1.00:0.15 / mixed_ref=0 / me_range=16 / chroma_me=1 / trellis=0 / 8x8dct=0 / cqm=0 / deadzone=21,11 / fast_pskip=1 / chroma_qp_offset=0 / threads=12 / lookahead_threads=3 / sliced_threads=0 / nr=0 / decimate=1 / interlaced=0 / bluray_compat=0 / constrained_intra=0 / bframes=3 / b_pyramid=2 / b_adapt=1 / b_bias=0 / direct=1 / weightb=1 / open_gop=0 / weightp=1 / keyint=250 / keyint_min=25 / scenecut=40 / intra_refresh=0 / rc_lookahead=10 / rc=abr / mbtree=1 / bitrate=1290 / ratetol=1.0 / qcomp=0.60 / qpmin=0 / qpmax=69 / qpstep=4 / vbv_maxrate=20000 / vbv_bufsize=25000 / nal_hrd=none / filler=0 / ip_ratio=1.40 / aq=1:1.00
Default                                  : Yes
Forced                                   : No
Color primaries                          : BT.470-6 System B, BT.470-6 System G, BT.601-6 625, BT.1358 625, BT.1700 625 PAL, BT.1700 625 SECAM
Transfer characteristics                 : BT.709-5, BT.1361
Matrix coefficients                      : BT.601-6 525, BT.1358 525, BT.1700 NTSC, SMPTE 170M

Audio #1
ID                                       : 2
Format                                   : AC-3
Format/Info                              : Audio Coding 3
Mode extension                           : CM (complete main)
Codec ID                                 : A_AC3
Duration                                 : 1h 33mn
Bit rate mode                            : Constant
Bit rate                                 : 192 Kbps
Channel(s)                               : 2 channels
Channel positions                        : Front: L R
Sampling rate                            : 48.0 KHz
Bit depth                                : 16 bits
Compression mode                         : Lossy
Delay relative to video                  : 1mn 5s
Stream size                              : 128 MiB (11%)
Title                                    : Stereo
Language                                 : Italian
Default                                  : Yes
Forced                                   : No

Audio #2
ID                                       : 3
Format                                   : AC-3
Format/Info                              : Audio Coding 3
Mode extension                           : CM (complete main)
Codec ID                                 : A_AC3
Duration                                 : 1h 33mn
Bit rate mode                            : Constant
Bit rate                                 : 192 Kbps
Channel(s)                               : 2 channels
Channel positions                        : Front: L R
Sampling rate                            : 48.0 KHz
Bit depth                                : 16 bits
Compression mode                         : Lossy
Delay relative to video                  : 1mn 5s
Stream size                              : 128 MiB (11%)
Title                                    : Stereo
Language                                 : German
Default                                  : No
Forced                                   : No

Menu
00:00:00.000                             : :Chapter 1
00:08:09.120                             : :Chapter 2
00:18:48.240                             : :Chapter 3
00:26:53.400                             : :Chapter 4
00:33:56.240                             : :Chapter 5
00:46:35.680                             : :Chapter 6
00:51:55.320                             : :Chapter 7
01:02:25.080                             : :Chapter 8
01:18:03.600                             : :Chapter 9



[/spoiler]

[/color][/b][/center]

Files list

- 0scDel1.png File size : 315.76 KB
- Per sempre - Back from Hell - Ein Toter kehrt zurück (1986).H264.ita.ger.iCV-MIRCrew.mkv File size : 1.09 GB
- Per sempre - Back from Hell - Ein Toter kehrt zurück (1986).H264.ita.ger.iCV-MIRCrew.srt File size : 90 B
- www.icv-crew.org.txt File size : 78 B

Disqus