Chat
Users Online
+ 17 Guests online in the last 24 hours.

Welcome to our newest member, AuausMalesserm
Ads
Torrent name: The Black Cat - Gatto nero (1981).H264.italian.english.Ac3.sub.eng.iCV-MIRCrew
File size: 1.24 GB
Seeds: 9
Leechs: 0
Categories: Movies SD
Torrent hash: 8f5e97da5a0bfa6483c432b54453682a58b76064
Social Share:
Uploader: robbyrs
Verified torrent:
    - udp://tracker.coppersurfer.tk:6969/announce
    - udp://tracker.opentrackr.org:1337/announce
    - udp://tracker.leechers-paradise.org:6969/announce
    - udp://9.rarbg.com:2710/announce
    - udp://9.rarbg.to:2710/announce
    - udp://9.rarbg.me:2710/announce
    - udp://glotorrents.pw:6969/announce
    - udp://tracker.openbittorrent.com:80/announce
    - udp://tracker.pubt.net:2710/announce
    - udp://tracker.ilibr.org:6969/announce
    - udp://tracker.ilibr.org:80/announce
    - udp://zer0day.to:1337/announce
    - udp://tracker.zer0day.to:1337/announce
    - udp://p4p.arenabg.com:1337/announce
    - udp://p4p.arenabg.ch:1337/announce
    - udp://explodie.org:6969/announce
    - udp://eddie4.nl:6969/announce
Download The Black Cat - Gatto nero (1981).H264.italian.english.Ac3.sub.eng.iCV-MIRCrew
Download .torrent   Magnet Link
Torrent detail

The Black Cat - Gatto nero (1981).H264.italian.english.Ac3.sub.eng.iCV-MIRCrew

The Black Cat - Gatto nero (1981).H264.italian.english.Ac3.sub.eng.iCV-MIRCrew

[center]

[color=red][b][img]https://s23.postimg.org/b9yhws27f/0sc_Del1.png[/img]
[u]NO FOUND ONLY ORIGINAL RELEASE[/u]

[img]https://worldimages.gallery/images/2017/09/02/4716a3153385da57f9bf0ad75d1cdd7a.gif[/img]

My release is always in double track audio italian and Original audio
for select it use VLC or dvd player home
not use wmp

Black Cat - Gatto nero - The Black Cat (1981)


[img]https://worldimages.gallery/images/2017/09/28/mircrewmuxbannerpiccolo.gif[/img]

[URL=https://www.imdb.com/title/tt0080440/][IMG]https://www.userlogos.org/files/logos/Sucka/imdb_new.png[/IMG][/URL]

[img]https://i.imgur.com/fGu1rKv.png[/img]

Titolo originale     Black Cat (Gatto nero)
Paese di produzione     Italia
Anno     1981
Durata     92 min
Genere     thriller, orrore, fantastico
Regia     Lucio Fulci
Soggetto     Biagio Proietti, dal racconto Il gatto nero di Edgar Allan Poe
Sceneggiatura     Biagio Proietti, Lucio Fulci
Produttore     Giulio Sbarigia
Casa di produzione     Selenia Cinematografica
Fotografia     Sergio Salvati
Montaggio     Vincenzo Tomassi
Effetti speciali     Paolo Ricci
Musiche     Pino Donaggio
Scenografia     Francesco Calabrese
Costumi     Massimo Lentini
Trucco     Franco Di Girolamo, Rosario Prestopino (assistente)

[img]https://i.imgur.com/W7kBqiE.png[/img]



    Patrick Magee: Robert Miles
    Mimsy Farmer: Jill Travers
    David Warbeck: ispettore Gorley
    Al Cliver: sergente Wilson
    Dagmar Lassander: Lillian Grayson
    Bruno Corazzari: Ferguson
    Geoffrey Copleston: ispettore Flynn
    Daniela Dorio: Maureen Grayson
    Lucio Fulci: dottore (scene tagliate)



[img]https://i.imgur.com/bFK3ggF.png[/img]

Robert Miles è uno psicologo capace di comunicare con i morti e di controllare la mente del suo gatto nero, particolarmente aggressivo nei suoi confronti. Ciononostante utilizza l'animale per compiere le sue vendette e uccidere chiunque gli sia contro. Una fotografa, Jill, che lavora in coppia con due poliziotti di Scotland Yard, scopre che vicino ai cadaveri al momento della morte c'è sempre un gatto nero..............

[img]https://i.imgur.com/48xHWWH.png[/img]

Robert Miles is a psychic that can communicate with the dead. He also has the ability to control the mind of his cat (who incidentally is black). He uses the cat to take vengeance upon his .

[img]https://i.imgur.com/K8bfNTy.png[/img]

[img]https://worldimages.gallery/images/2017/10/08/vlcsnap-2017-10-08-12h41m51s406.png[/img]

[url=https://worldimages.gallery/image/Tx940][img]https://worldimages.gallery/images/2017/10/08/vlcsnap-2017-10-08-12h41m18s751.th.png[/img][/url] [url=https://worldimages.gallery/image/TxOpo][img]https://worldimages.gallery/images/2017/10/08/vlcsnap-2017-10-08-12h41m24s813.th.png[/img][/url] [url=https://worldimages.gallery/image/Tx4m6][img]https://worldimages.gallery/images/2017/10/08/vlcsnap-2017-10-08-12h41m33s646.th.png[/img][/url] [url=https://worldimages.gallery/image/Txscu][img]https://worldimages.gallery/images/2017/10/08/vlcsnap-2017-10-08-12h42m35s540.th.png[/img][/url] [url=https://worldimages.gallery/image/TxuSH][img]https://worldimages.gallery/images/2017/10/08/vlcsnap-2017-10-08-12h43m36s126.th.png[/img][/url]

[img]https://i.imgur.com/aVrMohH.png[/img]


[spoiler]
General
Unique ID                                : 210605192994254234870239425000230026766 (0x9E7115B308FBD4A782C8AAE1D326FE0E)
Complete name                            : C:UsersrobbyDesktopGatto nero - The Black Cat (1981).H264.ita.eng.sub.eng.iCV-MIRCrewGatto nero - The Black Cat (1981).H264.ita.eng.sub.eng.iCV-MIRCrew.mkv
Format                                   : Matroska
Format version                           : Version 2
File size                                : 1.24 GiB
Duration                                 : 1h 31mn
Overall bit rate                         : 1 933 Kbps
Movie name                               : Gatto nero - The Black Cat (1981).H264.ita.eng.sub.eng.iCV-MIRCrew
Encoded date                             : UTC 2017-10-07T08:17:48Z
Writing application                      : mkvmerge v5.4.0 ('Piper') built on Mar 10 2012 13:34:39
Writing library                          : Lavf55.12.0
SUMMARY                                  : The.Black.Cat.1981.1080p.BluRay.H264.AAC-RARBG

Video
ID                                       : 1
Format                                   : AVC
Format/Info                              : Advanced Video Codec
Format profile                           : [email protected]
Format settings, CABAC                   : Yes
Format settings, ReFrames                : 4 frames
Muxing mode                              : Header stripping
Codec ID                                 : V_MPEG4/ISO/AVC
Duration                                 : 1h 31mn
Bit rate                                 : 1 300 Kbps
Width                                    : 720 pixels
Height                                   : 304 pixels
Display aspect ratio                     : 2.35:1
Frame rate mode                          : Variable
Frame rate                               : 23.976 fps
Color space                              : YUV
Chroma subsampling                       : 4:2:0
Bit depth                                : 8 bits
Scan type                                : Progressive
Bits/(Pixel*Frame)                       : 0.248
Stream size                              : 825 MiB (65%)
Title                                    : Il gatto neroThe Black Cat (1981).H264.ita.eng.sub.eng.iCV-MIRCrew
Writing library                          : x264 core 142 r2479 dd79a61
Encoding settings                        : cabac=1 / ref=1 / deblock=1:-1:-1 / analyse=0x1:0x111 / me=hex / subme=2 / psy=1 / psy_rd=1.00:0.15 / mixed_ref=0 / me_range=16 / chroma_me=1 / trellis=0 / 8x8dct=0 / cqm=0 / deadzone=21,11 / fast_pskip=1 / chroma_qp_offset=0 / threads=3 / lookahead_threads=1 / sliced_threads=0 / nr=0 / decimate=1 / interlaced=0 / bluray_compat=0 / constrained_intra=0 / bframes=3 / b_pyramid=2 / b_adapt=1 / b_bias=0 / direct=1 / weightb=1 / open_gop=0 / weightp=1 / keyint=240 / keyint_min=24 / scenecut=40 / intra_refresh=0 / rc_lookahead=10 / rc=abr / mbtree=1 / bitrate=1300 / ratetol=1.0 / qcomp=0.60 / qpmin=0 / qpmax=69 / qpstep=4 / vbv_maxrate=20000 / vbv_bufsize=25000 / nal_hrd=none / filler=0 / ip_ratio=1.40 / aq=1:1.00
Language                                 : Italian
Default                                  : Yes
Forced                                   : Yes
Color primaries                          : BT.709-5, BT.1361, IEC 61966-2-4, SMPTE RP177
Transfer characteristics                 : BT.709-5, BT.1361
Matrix coefficients                      : BT.709-5, BT.1361, IEC 61966-2-4 709, SMPTE RP177

Audio #1
ID                                       : 2
Format                                   : AC-3
Format/Info                              : Audio Coding 3
Mode extension                           : CM (complete main)
Muxing mode                              : Header stripping
Codec ID                                 : A_AC3
Duration                                 : 1h 31mn
Bit rate mode                            : Constant
Bit rate                                 : 448 Kbps
Channel(s)                               : 2 channels
Channel positions                        : Front: L R
Sampling rate                            : 48.0 KHz
Bit depth                                : 16 bits
Compression mode                         : Lossy
Delay relative to video                  : 2s 917ms
Stream size                              : 295 MiB (23%)
Title                                    : Ita
Language                                 : Italian
Default                                  : Yes
Forced                                   : Yes

Audio #2
ID                                       : 3
Format                                   : AC-3
Format/Info                              : Audio Coding 3
Mode extension                           : CM (complete main)
Muxing mode                              : Header stripping
Codec ID                                 : A_AC3
Duration                                 : 1h 31mn
Bit rate mode                            : Constant
Bit rate                                 : 192 Kbps
Channel(s)                               : 1 channel
Channel positions                        : Front: C
Sampling rate                            : 48.0 KHz
Bit depth                                : 16 bits
Compression mode                         : Lossy
Delay relative to video                  : -5ms
Stream size                              : 126 MiB (10%)
Title                                    : eng
Language                                 : English
Default                                  : No
Forced                                   : No

Text
ID                                       : 4
Format                                   : UTF-8
Codec ID                                 : S_TEXT/UTF8
Codec ID/Info                            : UTF-8 Plain Text
Default                                  : Yes
Forced                                   : No



[/spoiler]

[/color][/b][/center]

Files list

- 0scDel1.png File size : 315.76 KB
- Gatto nero - The Black Cat (1981).H264.ita.eng.sub.eng.iCV-MIRCrew.eng.srt File size : 29.51 KB
- Gatto nero - The Black Cat (1981).H264.ita.eng.sub.eng.iCV-MIRCrew.mkv File size : 1.24 GB
- Gatto nero - The Black Cat (1981).H264.ita.eng.sub.eng.iCV-MIRCrew.srt File size : 90 B
- www.icv-crew.org.txt File size : 78 B

Disqus