Chat
Users Online
+ 17 Guests online in the last 24 hours.

Welcome to our newest member, AuausMalesserm
Ads
Torrent name: Yes Man 2008 720p Esub BluRay Dual Audio English Hindi GOPISAHI
File size: 692.56 MB
Seeds: 15
Leechs: 0
Categories: Movies HD
Torrent hash: ec01ee5b335d7195a2cde119a10cf8392f7fadcb
Social Share:
Uploader: gopisahi
Verified torrent:
    - http://ipv4.tracker.harry.lu/announce
    - http://ipv4.tracker.harry.lu:80/announce
    - http://163.172.180.68:80/announce
    - http://t.nyaatracker.com/announce
    - http://tracker.devil-torrents.pl:80/announce
    - http://tracker.devil-torrents.pl/announce
    - http://open.kickasstracker.com/announce
    - http://163.172.180.68/announce
    - http://t.nyaatracker.com:80/announce
    - http://retracker.mgts.by:80/announce
    - http://45.33.11.224/announce
    - http://tracker.torrentyorg.pl:80/announce
    - http://pt.lax.mx:80/announce
    - udp://tracker.coppersurfer.tk:6969/announce
    - udp://tracker.pirateparty.gr:6969/announce
Download Yes Man 2008 720p Esub BluRay Dual Audio English Hindi GOPISAHI
Download .torrent   Magnet Link
Torrent detail

Yes Man 2008 720p Esub BluRay Dual Audio English Hindi GOPISAHI

[center][img]https://i.imgur.com/OwNcfXM.jpg[/img]
Format                         : Matroska
Format version                 : Version 4 / Version 2
File size                      : 693 MiB
Duration                       : 1 h 44 min
Overall bit rate mode          : Variable
Overall bit rate               : 928 kb/s
Movie name                     : Yes Man 2008 

Video
Format                         : AVC
Codec ID                       : V_MPEG4/ISO/AVC
Duration                       : 1 h 44 min
Bit rate mode                  : Variable
Bit rate                       : 741 kb/s
Maximum bit rate               : 25.0 Mb/s
Width                          : 1 280 pixels
Height                         : 544 pixels
Display aspect ratio           : 2.35:1
Frame rate mode                : Constant
Frame rate                     : 23.976 (24000/1001) FPS
Stream size                    : 552 MiB (80%)
Writing library                : x264 core 105 r1732 2b04482

Audio #1
Format                         : AAC
Duration                       : 1 h 44 min
Bit rate                       : 90.3 kb/s
Channel(s)                     : 6 channels
Channel positions              : Front: L C R, Side: L R, LFE
Sampling rate                  : 44.1 kHz
Frame rate                     : 43.066 FPS (1024 SPF)
Stream size                    : 67.4 MiB (10%)
Language                       : English

Audio #2
Format                         : AAC
Duration                       : 1 h 44 min
Bit rate                       : 96.0 kb/s
Channel(s)                     : 6 channels
Channel positions              : Front: L C R, Side: L R, LFE
Sampling rate                  : 44.1 kHz
Frame rate                     : 43.066 FPS (1024 SPF)
Stream size                    : 70.3 MiB (10%)
Language                       : Hindi

Text #1
Title                          : GOPISAHI
Language                       : English

Text #2
Stream size                    : 64.0 KiB (0%)
Title                          : SDH
Language                       : English
[img]https://i.imgur.com/gJFvlmV.jpg[/img]
[img]https://i.imgur.com/Ugzl4zB.jpg[/img]
[img]https://i.imgur.com/laqxIk4.jpg[/img][/center]

Files list

- Yes Man 2008 720p Esub BluRay Dual Audio English Hindi GOPISAHI.mkv File size : 692.56 MB

Disqus