Chat
Users Online
+ 17 Guests online in the last 24 hours.

Welcome to our newest member, AuausMalesserm
Ads
Torrent name: Bridge To Terabithia 2007 720p Esub BluRay Dual Audio English Hindi GOPISAHI
File size: 814.93 MB
Seeds: 15
Leechs: 0
Categories: Movies HD
Torrent hash: 1daf3e6f1bd46e20263fc7b4ca11f6fae8eb7bb0
Social Share:
Uploader: gopisahi
Verified torrent:
    - http://ipv4.tracker.harry.lu/announce
    - http://ipv4.tracker.harry.lu:80/announce
    - http://163.172.180.68:80/announce
    - http://t.nyaatracker.com/announce
    - http://tracker.devil-torrents.pl:80/announce
    - http://tracker.devil-torrents.pl/announce
    - http://open.kickasstracker.com/announce
    - http://163.172.180.68/announce
    - http://t.nyaatracker.com:80/announce
    - http://retracker.mgts.by:80/announce
    - http://45.33.11.224/announce
    - http://tracker.torrentyorg.pl:80/announce
    - http://pt.lax.mx:80/announce
    - udp://tracker.coppersurfer.tk:6969/announce
    - udp://tracker.pirateparty.gr:6969/announce
Download Bridge To Terabithia 2007 720p Esub BluRay Dual Audio English Hindi GOPISAHI
Download .torrent   Magnet Link
Torrent detail

Bridge To Terabithia 2007 720p Esub BluRay Dual Audio English Hindi GOPISAHI

[center][img]https://i.imgur.com/sH9mC7x.jpg[/img]
Format                         : Matroska
Format version                 : Version 4 / Version 2
File size                      : 815 MiB
Duration                       : 1 h 35 min
Overall bit rate               : 1 193 kb/s
Movie name                     : Bridge To Terabithia 2007 GOPISAHI

Video
Format                         : AVC
Codec ID                       : V_MPEG4/ISO/AVC
Duration                       : 1 h 35 min
Bit rate                       : 999 kb/s
Width                          : 1 280 pixels
Height                         : 694 pixels
Display aspect ratio           : 1.85:1
Frame rate mode                : Constant
Frame rate                     : 23.976 (24000/1001) FPS
Stream size                    : 683 MiB (84%)
Title                          : GOPISAHI
Writing library                : x264 

Audio #1
Format                         : AAC
Duration                       : 1 h 35 min
Bit rate                       : 98.3 kb/s
Channel(s)                     : 6 channels
Channel positions              : Front: L C R, Side: L R, LFE
Sampling rate                  : 44.1 kHz
Frame rate                     : 43.066 FPS (1024 SPF)
Stream size                    : 67.2 MiB (8%)
Title                          : GOPISAHI
Language                       : Hindi

Audio #2
Format                         : AAC
Duration                       : 1 h 35 min
Bit rate                       : 92.5 kb/s
Channel(s)                     : 6 channels
Channel positions              : Front: L C R, Side: L R, LFE
Sampling rate                  : 44.1 kHz
Frame rate                     : 43.066 FPS (1024 SPF)
Stream size                    : 63.2 MiB (8%)
Title                          : GOPISAHI
Language                       : English

Text
Language                       : English
[img]https://i.imgur.com/20brk20.jpg[/img]
[img]https://i.imgur.com/ab9NN9H.jpg[/img]
[img]https://i.imgur.com/Xkzfsal.jpg[/img][/center]

Files list

- Bridge To Terabithia 2007 720p Esub BluRay Dual Audio English Hindi GOPISAHI.mkv File size : 814.93 MB

Disqus