Chat
Users Online
+ 9 Guests online in the last 24 hours.

Welcome to our newest member, Charlesirows
Ads
Torrent name: Before The Rains 2007 720p Esub HD-RIP Dual Audio English Hindi GOPISAHI
File size: 729.92 MB
Seeds: 13
Leechs: 0
Categories: Movies HD
Torrent hash: 9109449cb437d082dd2fa62f325a5ae0f4fe9bf3
Social Share:
Uploader: gopisahi
Verified torrent:
    - http://ipv4.tracker.harry.lu/announce
    - http://ipv4.tracker.harry.lu:80/announce
    - http://163.172.180.68:80/announce
    - http://t.nyaatracker.com/announce
    - http://tracker.devil-torrents.pl:80/announce
    - http://tracker.devil-torrents.pl/announce
    - http://open.kickasstracker.com/announce
    - http://163.172.180.68/announce
    - http://t.nyaatracker.com:80/announce
    - http://retracker.mgts.by:80/announce
    - http://45.33.11.224/announce
    - http://tracker.torrentyorg.pl:80/announce
    - http://pt.lax.mx:80/announce
    - udp://tracker.coppersurfer.tk:6969/announce
    - udp://tracker.pirateparty.gr:6969/announce
Download Before The Rains 2007 720p Esub HD-RIP Dual Audio English Hindi GOPISAHI
Download .torrent   Magnet Link
Torrent detail

Before The Rains 2007 720p Esub HD-RIP Dual Audio English Hindi GOPISAHI

[center][img]https://i.imgur.com/m2HsPeY.jpg[/img]
Format                         : Matroska
Format version                 : Version 4 / Version 2
File size                      : 730 MiB
Duration                       : 1 h 37 min
Overall bit rate               : 1 042 kb/s
Movie name                     : Before The Rains 2007 GOPISAHI

Video
Format                         : AVC
Format/Info                    : Advanced Video Codec
Codec ID                       : V_MPEG4/ISO/AVC
Duration                       : 1 h 37 min
Bit rate                       : 865 kb/s
Width                          : 1 280 pixels
Height                         : 576 pixels
Display aspect ratio           : 2.222
Frame rate                     : 23.976 (24000/1001) FPS
Stream size                    : 601 MiB (82%)
Title                          : GOPISAHI
Writing library                : x264 

Audio #1
Format                         : AAC
Duration                       : 1 h 37 min
Bit rate                       : 89.2 kb/s
Channel(s)                     : 6 channels
Channel positions              : Front: L C R, Side: L R, LFE
Sampling rate                  : 44.1 kHz
Frame rate                     : 43.066 FPS (1024 SPF)
Stream size                    : 62.5 MiB (9%)
Title                          : GOPISAHI
Language                       : English

Audio #2
Format                         : AAC
Duration                       : 1 h 37 min
Bit rate                       : 92.1 kb/s
Channel(s)                     : 6 channels
Channel positions              : Front: L C R, Side: L R, LFE
Sampling rate                  : 44.1 kHz
Frame rate                     : 43.066 FPS (1024 SPF)
Stream size                    : 64.5 MiB (9%)
Title                          : GOPISAHI
Language                       : Hindi

Text
Language                       : English
[img]https://i.imgur.com/hWKvaaX.jpg[/img]
[img]https://i.imgur.com/IswPOrp.jpg[/img]
[img]https://i.imgur.com/oMKkfoa.jpg[/img]
[/center]

Files list

- Before The Rains 2007 720p Esub HD-RIP Dual Audio English Hindi GOPISAHI.mkv File size : 729.92 MB

Disqus