Chat
Users Online
+ 9 Guests online in the last 24 hours.

Welcome to our newest member, Charlesirows
Ads
Torrent name: Tropic Thunder 2008 D-C 720p Esub BluRay Dual Audio English Hindi GOPISAHI
File size: 818.52 MB
Seeds: 15
Leechs: 0
Categories: Movies HD
Torrent hash: a2d0b0c841e64ec5ad82a683a031dd9cfcdba181
Social Share:
Uploader: gopisahi
Verified torrent:
    - http://ipv4.tracker.harry.lu/announce
    - http://ipv4.tracker.harry.lu:80/announce
    - http://163.172.180.68:80/announce
    - http://t.nyaatracker.com/announce
    - http://tracker.devil-torrents.pl:80/announce
    - http://tracker.devil-torrents.pl/announce
    - http://open.kickasstracker.com/announce
    - http://163.172.180.68/announce
    - http://t.nyaatracker.com:80/announce
    - http://retracker.mgts.by:80/announce
    - http://45.33.11.224/announce
    - http://tracker.torrentyorg.pl:80/announce
    - http://pt.lax.mx:80/announce
    - udp://tracker.coppersurfer.tk:6969/announce
    - udp://tracker.pirateparty.gr:6969/announce
Download Tropic Thunder 2008 D-C 720p Esub BluRay Dual Audio English Hindi GOPISAHI
Download .torrent   Magnet Link
Torrent detail

Tropic Thunder 2008 D-C 720p Esub BluRay Dual Audio English Hindi GOPISAHI

[center][img]https://i.imgur.com/qtAFNup.jpg[/img]
Format                         : Matroska
Format version                 : Version 4 / Version 2
File size                      : 819 MiB
Duration                       : 2 h 1 min
Overall bit rate               : 945 kb/s
Movie name                     : Tropic Thunder 2008 DC GOPISAHI

Video
Format                         : AVC
Codec ID                       : V_MPEG4/ISO/AVC
Duration                       : 2 h 1 min
Bit rate                       : 775 kb/s
Width                          : 1 280 pixels
Height                         : 544 pixels
Display aspect ratio           : 2.35:1
Frame rate mode                : Constant
Frame rate                     : 23.976 (24000/1001) FPS
Stream size                    : 671 MiB (82%)
Title                          : GOPISAHI
Writing library                : x264

Audio #1
Format                         : AAC
Duration                       : 2 h 1 min
Bit rate                       : 80.9 kb/s
Channel(s)                     : 6 channels
Channel positions              : Front: L C R, Side: L R, LFE
Sampling rate                  : 44.1 kHz
Frame rate                     : 43.066 FPS (1024 SPF)
Stream size                    : 70.1 MiB (9%)
Language                       : English

Audio #2
Format                         : AAC
Duration                       : 1 h 55 min
Bit rate                       : 90.3 kb/s
Channel(s)                     : 6 channels
Channel positions              : Front: L C R, Side: L R, LFE
Sampling rate                  : 44.1 kHz
Frame rate                     : 43.066 FPS (1024 SPF)
Stream size                    : 74.5 MiB (9%)
Language                       : Hindi

Text
Language                       : English
[img]https://i.imgur.com/Mdtj2rw.jpg[/img]
[img]https://i.imgur.com/B44W84o.jpg[/img]
[img]https://i.imgur.com/KvWgeRS.jpg[/img][/center]

Files list

- Tropic Thunder 2008 D-C 720p Esub BluRay Dual Audio English Hindi GOPISAHI.mkv File size : 818.52 MB

Disqus