Chat
Users Online
+ 17 Guests online in the last 24 hours.

Welcome to our newest member, AuausMalesserm
Ads
Torrent name: Captain Underpants - Capitan Mutanda (2017).H264.italian.english.Ac3-5.1.sub.ita.iCV-MIRCrew
File size: 1.36 GB
Seeds: 9
Leechs: 0
Categories: Movies SD
Torrent hash: a3c97d669d8e2efa6e026b1994b06a09d20d59cb
Social Share:
Uploader: robbyrs
Verified torrent:
    - udp://tracker.coppersurfer.tk:6969/announce
    - udp://tracker.opentrackr.org:1337/announce
    - udp://tracker.leechers-paradise.org:6969/announce
    - udp://9.rarbg.com:2710/announce
    - udp://9.rarbg.to:2710/announce
    - udp://9.rarbg.me:2710/announce
    - udp://glotorrents.pw:6969/announce
    - udp://tracker.openbittorrent.com:80/announce
    - udp://tracker.pubt.net:2710/announce
    - udp://tracker.ilibr.org:6969/announce
    - udp://tracker.ilibr.org:80/announce
    - udp://zer0day.to:1337/announce
    - udp://tracker.zer0day.to:1337/announce
    - udp://p4p.arenabg.com:1337/announce
    - udp://p4p.arenabg.ch:1337/announce
    - udp://explodie.org:6969/announce
    - udp://eddie4.nl:6969/announce
Download Captain Underpants - Capitan Mutanda (2017).H264.italian.english.Ac3-5.1.sub.ita.iCV-MIRCrew
Download .torrent   Magnet Link
Torrent detail

Captain Underpants - Capitan Mutanda (2017).H264.italian.english.Ac3-5.1.sub.ita.iCV-MIRCrew

Captain Underpants - Capitan Mutanda (2017).H264.italian.english.Ac3-5.1.sub.ita.iCV-MIRCrew

[center]

[color=red][b][img]https://s23.postimg.org/b9yhws27f/0sc_Del1.png[/img]
[u]NO FOUND ONLY ORIGINAL RELEASE[/u]

[img]https://worldimages.gallery/images/2017/09/02/4716a3153385da57f9bf0ad75d1cdd7a.gif[/img]

My release is always in double track audio italian and Original audio
for select it use VLC or dvd player home
not use wmp

Capitan Mutanda - Captain Underpants (2017)

[img]https://worldimages.gallery/images/2017/10/11/w.png[/img]

[URL=https://www.imdb.com/title/tt2091256/][IMG]https://www.userlogos.org/files/logos/Sucka/imdb_new.png[/IMG][/URL]

[img]https://i.imgur.com/fGu1rKv.png[/img]

GENERE: Animazione, Azione, Commedia, Family
ANNO: 2017
REGIA: David Soren
ATTORI: Kevin Hart, Ed Helms
PAESE: USA
DURATA: 89 Min
FORMATO: 2D e 3D
DISTRIBUZIONE: 20th Century Fox

[img]https://i.imgur.com/W7kBqiE.png[/img]

*********************************************

[img]https://i.imgur.com/bFK3ggF.png[/img]

Basato sullo scalmanato personaggio ideato da Dav Pilkey negli anni novanta, Capitan Mutanda è il supereroe del quotidiano che mancava nel vasto panorama animato e non. Grassoccio, inetto, irrimediabilmente tonto, non perde mai l'esuberanza e il portamento snodato e disinvolto con cui affronta le sfide e i nemici immaginari.

[img]https://i.imgur.com/48xHWWH.png[/img]

Two overly imaginative pranksters named George and Harold hypnotize their principal into thinking he's a ridiculously enthusiastic, incredibly dimwitted superhero named Captain Underpants. .

[img]https://i.imgur.com/K8bfNTy.png[/img]

[url=https://worldimages.gallery/image/TKh6e][img]https://worldimages.gallery/images/2017/10/11/vlcsnap-2017-10-11-15h17m02s133.th.png[/img][/url] [url=https://worldimages.gallery/image/TK0Hg][img]https://worldimages.gallery/images/2017/10/11/vlcsnap-2017-10-11-15h17m24s403.th.png[/img][/url] [url=https://worldimages.gallery/image/TK2zX][img]https://worldimages.gallery/images/2017/10/11/vlcsnap-2017-10-11-15h17m29s255.th.png[/img][/url]

[img]https://i.imgur.com/aVrMohH.png[/img]


[spoiler]
General
Unique ID                                : 151490775823803527876237400770127809091 (0x71F80FE8C8B332A7EB11B8BDCD6F4A43)
Complete name                            : Capitan Mutanda (2017).H264.ita.eng.sub.ita.iCV-MIRCrew.mkv
Format                                   : Matroska
Format version                           : Version 2
File size                                : 1.36 GiB
Duration                                 : 1h 28mn
Overall bit rate                         : 2 196 Kbps
Movie name                               : www.icv-crew.org
Encoded date                             : UTC 2017-10-07 17:29:34
Writing application                      : Lavf54.63.100
Writing library                          : Lavf54.63.100
ARTIST                                   : robbyrs
COPYRIGHT                                : iCV-MIRCrew
DATE                                     : 2017

Video
ID                                       : 1
Format                                   : AVC
Format/Info                              : Advanced Video Codec
Format profile                           : [email protected]
Format settings, CABAC                   : Yes
Format settings, ReFrames                : 2 frames
Codec ID                                 : V_MPEG4/ISO/AVC
Duration                                 : 1h 28mn
Bit rate                                 : 1 300 Kbps
Width                                    : 720 pixels
Height                                   : 384 pixels
Display aspect ratio                     : 16:9
Frame rate mode                          : Variable
Frame rate                               : 23.976 fps
Color space                              : YUV
Chroma subsampling                       : 4:2:0
Bit depth                                : 8 bits
Scan type                                : Progressive
Bits/(Pixel*Frame)                       : 0.196
Stream size                              : 797 MiB (57%)
Writing library                          : x264 core 130 r2273
Encoding settings                        : cabac=1 / ref=2 / deblock=1:0:0 / analyse=0x1:0x131 / me=hex / subme=7 / psy=1 / psy_rd=1.00:0.00 / mixed_ref=0 / me_range=16 / chroma_me=1 / trellis=1 / 8x8dct=0 / cqm=0 / deadzone=21,11 / fast_pskip=1 / chroma_qp_offset=-2 / threads=12 / lookahead_threads=2 / sliced_threads=0 / nr=0 / decimate=1 / interlaced=0 / bluray_compat=0 / constrained_intra=0 / bframes=3 / b_pyramid=0 / b_adapt=1 / b_bias=0 / direct=3 / weightb=1 / open_gop=0 / weightp=2 / keyint=230 / keyint_min=23 / scenecut=40 / intra_refresh=0 / rc_lookahead=40 / rc=abr / mbtree=1 / bitrate=1300 / ratetol=1.0 / qcomp=0.60 / qpmin=10 / qpmax=69 / qpstep=4 / vbv_maxrate=24000 / vbv_bufsize=24000 / nal_hrd=none / ip_ratio=1.40 / aq=1:1.00
Language                                 : Italian
Default                                  : Yes
Forced                                   : No
DURATION                                 : 01:28:40.240000000
NUMBER_OF_FRAMES                         : 127558
NUMBER_OF_BYTES                          : 3687968283
_STATISTICS_WRITING_APP                  : mkvmerge v8.7.0 ('All of the above') 64bit
_STATISTICS_WRITING_DATE_UTC             : 2017-10-07 13:32:01
_STATISTICS_TAGS                         : BPS DURATION NUMBER_OF_FRAMES NUMBER_OF_BYTES

Audio #1
ID                                       : 2
Format                                   : AC-3
Format/Info                              : Audio Coding 3
Mode extension                           : CM (complete main)
Codec ID                                 : A_AC3
Duration                                 : 1h 28mn
Bit rate mode                            : Constant
Bit rate                                 : 448 Kbps
Channel(s)                               : 6 channels
Channel positions                        : Front: L C R, Side: L R, LFE
Sampling rate                            : 48.0 KHz
Bit depth                                : 16 bits
Compression mode                         : Lossy
Delay relative to video                  : 1mn 5s
Stream size                              : 284 MiB (20%)
Title                                    : AC3 ITA
Language                                 : Italian
Default                                  : No
Forced                                   : No
DURATION                                 : 01:28:40.352000000
NUMBER_OF_FRAMES                         : 166261
NUMBER_OF_BYTES                          : 425628160
_STATISTICS_WRITING_APP                  : mkvmerge v8.7.0 ('All of the above') 64bit
_STATISTICS_WRITING_DATE_UTC             : 2017-10-07 13:32:01
_STATISTICS_TAGS                         : BPS DURATION NUMBER_OF_FRAMES NUMBER_OF_BYTES

Audio #2
ID                                       : 3
Format                                   : AC-3
Format/Info                              : Audio Coding 3
Mode extension                           : CM (complete main)
Codec ID                                 : A_AC3
Duration                                 : 1h 28mn
Bit rate mode                            : Constant
Bit rate                                 : 448 Kbps
Channel(s)                               : 6 channels
Channel positions                        : Front: L C R, Side: L R, LFE
Sampling rate                            : 48.0 KHz
Bit depth                                : 16 bits
Compression mode                         : Lossy
Delay relative to video                  : 1mn 5s
Stream size                              : 284 MiB (20%)
Title                                    : AC3 ENG
Language                                 : English
Default                                  : No
Forced                                   : No
DURATION                                 : 01:28:40.352000000
NUMBER_OF_FRAMES                         : 166261
NUMBER_OF_BYTES                          : 425628160
_STATISTICS_WRITING_APP                  : mkvmerge v8.7.0 ('All of the above') 64bit
_STATISTICS_WRITING_DATE_UTC             : 2017-10-07 13:32:01
_STATISTICS_TAGS                         : BPS DURATION NUMBER_OF_FRAMES NUMBER_OF_BYTES

Text #1
ID                                       : 4
Format                                   : ASS
Codec ID                                 : S_TEXT/ASS
Codec ID/Info                            : Advanced Sub Station Alpha
Compression mode                         : Lossless
Title                                    : Forced
Language                                 : Italian
Default                                  : Yes
Forced                                   : No
DURATION                                 : 01:26:54.543000000
NUMBER_OF_FRAMES                         : 11
NUMBER_OF_BYTES                          : 244
_STATISTICS_WRITING_APP                  : mkvmerge v8.7.0 ('All of the above') 64bit
_STATISTICS_WRITING_DATE_UTC             : 2017-10-07 13:32:01
_STATISTICS_TAGS                         : BPS DURATION NUMBER_OF_FRAMES NUMBER_OF_BYTES

Text #2
ID                                       : 5
Format                                   : ASS
Codec ID                                 : S_TEXT/ASS
Codec ID/Info                            : Advanced Sub Station Alpha
Compression mode                         : Lossless
Title                                    : Regular
Language                                 : Italian
Default                                  : No
Forced                                   : No
DURATION                                 : 01:27:33.624000000
NUMBER_OF_FRAMES                         : 1480
NUMBER_OF_BYTES                          : 44571
_STATISTICS_WRITING_APP                  : mkvmerge v8.7.0 ('All of the above') 64bit
_STATISTICS_WRITING_DATE_UTC             : 2017-10-07 13:32:01
_STATISTICS_TAGS                         : BPS DURATION NUMBER_OF_FRAMES NUMBER_OF_BYTES

Menu
00:00:00.000                             : :00:00:00.000
00:07:05.342                             : :00:07:05.342
00:14:28.201                             : :00:14:28.201
00:20:13.838                             : :00:20:13.838
00:29:27.099                             : :00:29:27.099
00:39:02.590                             : :00:39:02.590
00:50:56.804                             : :00:50:56.804
00:59:52.756                             : :00:59:52.756
01:08:53.129                             : :01:08:53.129
01:16:19.950                             : :01:16:19.950
01:23:27.706                             : :01:23:27.706



[/spoiler]

[/color][/b][/center]

Files list

- Capitan Mutanda (2017).H264.ita.eng.sub.ita.iCV-MIRCrew.ita.srt File size : 101.71 KB
- Capitan Mutanda (2017).H264.ita.eng.sub.ita.iCV-MIRCrew.mkv File size : 1.36 GB
- Capitan Mutanda (2017).H264.ita.eng.sub.ita.iCV-MIRCrew.srt File size : 663 B

Disqus