Chat
Users Online
+ 17 Guests online in the last 24 hours.

Welcome to our newest member, HeronMalesserm
Ads
Torrent name: Star Trek - Discovery.1x04.Ita.Eng.Ac3-5.1.sub.ita.eng.iCV-MIRCrew
File size: 791.97 MB
Seeds: 0
Leechs: 0
Categories: TV SD
Torrent hash: f10aa5ac31d23e5e0c2cc8b8d476d2e2eb4cc4fc
Social Share:
Uploader: robbyrs
Verified torrent:
    - udp://tracker.coppersurfer.tk:6969/announce
    - udp://tracker.opentrackr.org:1337/announce
    - udp://tracker.leechers-paradise.org:6969/announce
    - udp://9.rarbg.com:2710/announce
    - udp://9.rarbg.to:2710/announce
    - udp://9.rarbg.me:2710/announce
    - udp://glotorrents.pw:6969/announce
    - udp://tracker.openbittorrent.com:80/announce
    - udp://tracker.pubt.net:2710/announce
    - udp://tracker.ilibr.org:6969/announce
    - udp://tracker.ilibr.org:80/announce
    - udp://zer0day.to:1337/announce
    - udp://tracker.zer0day.to:1337/announce
    - udp://p4p.arenabg.com:1337/announce
    - udp://p4p.arenabg.ch:1337/announce
    - udp://explodie.org:6969/announce
    - udp://eddie4.nl:6969/announce
Download Star Trek - Discovery.1x04.Ita.Eng.Ac3-5.1.sub.ita.eng.iCV-MIRCrew
Download .torrent   Magnet Link
Torrent detail

Star Trek - Discovery.1x04.Ita.Eng.Ac3-5.1.sub.ita.eng.iCV-MIRCrew

Star Trek - Discovery.1x04.Ita.Eng.Ac3-5.1.sub.ita.eng.iCV-MIRCrew

[center][img]https://extraimago.com/images/2016/07/16/oCo82IVa08d8.png[/img]

[img]https://worldimages.gallery/images/2017/09/26/w.png[/img][/center]
[color=orange]
Paese     Stati Uniti d'America
Anno     2017 – in produzione
Formato     serie TV
Genere     fantascienza
Stagioni     1 Modifica su Wikidata
Episodi     15 Modifica su Wikidata
Durata     45 min (episodio)
Lingua originale     inglese
Dati tecnici     rapporto: 2:1
Ideatore     Bryan Fuller, Alex Kurtzman
Soggetto     Star Trek creato da Gene Roddenberry

Star Trek: Discovery è una serie televisiva statunitense di fantascienza ideata da Bryan Fuller e Alex Kurtzman per CBS All Access. Si tratta della prima serie del franchise di Star Trek dopo la conclusione di Star Trek: Enterprise nel 2005. Ambientata dieci anni prima gli eventi della serie originale di Star Trek, Discovery segue le avventure della nave stellare USS Discovery nel suo viaggio attraverso lo spazio alla ricerca di nuovi mondi e nuove civiltà. Gretchen J. Berg e Aaron Harberts sono gli showrunner della serie, con il supporto di Akiva Goldsman.


1     The Vulcan Hello     Un saluto vulcaniano     
2     Battle at the Binary Stars     La battaglia delle stelle binarie
3     Context is for Kings     Il contesto è dei Re
[color=red]4     The Butcher’s Knife Cares Not for the Lamb’s Cry[/color]    



[URL=http://www.imdb.com/title/tt5171438/][IMG]https://www.userlogos.org/files/logos/Sucka/imdb_new.png[/IMG][/URL]

[b][u]Trama - Storyline:[/u][/b]

In un'epoca lontana e sconosciuta, la stessa che ha plasmato il destino della Federazione dei Pianeti Uniti, il primo ufficiale Michael Burnham e il resto dell'equipaggio della USS Discovery, un'astronave capitanata dal brillante Gabriel Lorca, viaggiano alla scoperta di nuovi mondi e nuove forme di vita mentre la minaccia della guerra incombe.
______________

Ten years before Kirk, Spock and the Enterprise, the USS Discovery discovers new worlds and lifeforms as one Starfleet officer learns to understand all things alien.

A group of teenagers return from a camping trip to find themselves in the middle of an unexpected war. Among only a few Australians still free, they must learn to defend themselves against the hostile invaders.

[URL=https://www.imdb.com/title/tt4716164/][IMG]https://www.userlogos.org/files/logos/Sucka/imdb_new.png[/IMG][/URL]


[b][u]Cast:[/u][/b]


    Sonequa Martin-Green: Michael Burnham
    Doug Jones: Saru
    Shazad Latif: Ash Tyler
    Anthony Rapp: Paul Stamets
    Mary Wiseman: Sylvia Tilly
    Jason Isaacs: Gabriel Lorca


[u][b]Screenshot:[/b][/u]

[img]https://worldimages.gallery/images/2017/09/26/vlcsnap-2017-09-26-11h07m59s117.png[/img]
[img]https://worldimages.gallery/images/2017/09/26/vlcsnap-2017-09-26-11h08m09s301.png[/img]
[img]https://worldimages.gallery/images/2017/09/26/vlcsnap-2017-09-26-11h09m08s075.png[/img]
[img]https://worldimages.gallery/images/2017/09/26/vlcsnap-2017-09-26-11h10m14s877.png[/img]


[b][u]Dati File:[/u][/b]

[spoiler]General
Complete name                            : Star Trek - Discovery.1x04.Ita.Eng.sub.ita.eng.iCV-MIRCrew.avi
Format                                   : AVI
Format/Info                              : Audio Video Interleave
File size                                : 792 MiB
Duration                                 : 49mn 29s
Overall bit rate                         : 2 237 Kbps
Movie name                               : Star Trek - Discovery.1x04.Ita.Eng.sub.ita.eng.iCV-MIRCrew
Director                                 : robbyrs
Recorded date                            : 2017
Writing application                      : VirtualDubMod 1.5.10.2 (build 2540/release)
Writing library                          : VirtualDubMod build 2540/release
Copyright                                : iCV-MIRCrew

Video
ID                                       : 0
Format                                   : MPEG-4 Visual
Format profile                           : [email protected]
Format settings, BVOP                    : No
Format settings, QPel                    : No
Format settings, GMC                     : No warppoints
Format settings, Matrix                  : Default (H.263)
Codec ID                                 : XVID
Codec ID/Hint                            : XviD
Duration                                 : 49mn 29s
Bit rate                                 : 1 455 Kbps
Width                                    : 720 pixels
Height                                   : 360 pixels
Display aspect ratio                     : 2.000
Frame rate                               : 23.976 fps
Color space                              : YUV
Chroma subsampling                       : 4:2:0
Bit depth                                : 8 bits
Scan type                                : Progressive
Compression mode                         : Lossy
Bits/(Pixel*Frame)                       : 0.234
Stream size                              : 515 MiB (65%)
Writing library                          : XviD 64

Audio #1
ID                                       : 1
Format                                   : AC-3
Format/Info                              : Audio Coding 3
Mode extension                           : CM (complete main)
Codec ID                                 : 2000
Duration                                 : 49mn 29s
Bit rate mode                            : Constant
Bit rate                                 : 384 Kbps
Channel(s)                               : 6 channels
Channel positions                        : Front: L C R, Side: L R, LFE
Sampling rate                            : 48.0 KHz
Bit depth                                : 16 bits
Compression mode                         : Lossy
Stream size                              : 136 MiB (17%)
Alignment                                : Split accross interleaves
Interleave, duration                     : 42 ms (1.00 video frame)
Interleave, preload duration             : 500 ms

Audio #2
ID                                       : 2
Format                                   : AC-3
Format/Info                              : Audio Coding 3
Mode extension                           : CM (complete main)
Codec ID                                 : 2000
Duration                                 : 49mn 28s
Bit rate mode                            : Constant
Bit rate                                 : 384 Kbps
Channel(s)                               : 6 channels
Channel positions                        : Front: L C R, Side: L R, LFE
Sampling rate                            : 48.0 KHz
Bit depth                                : 16 bits
Compression mode                         : Lossy
Stream size                              : 136 MiB (17%)
Alignment                                : Split accross interleaves
Interleave, duration                     : 42 ms (1.00 video frame)
Interleave, preload duration             : 500 ms





[/spoiler]



Files list

- Star Trek - Discovery.1x04.Ita.Eng.sub.ita.eng.iCV-MIRCrew.avi File size : 791.82 MB
- Star Trek - Discovery.1x04.Ita.Eng.sub.ita.eng.iCV-MIRCrew.eng.srt File size : 47.82 KB
- Star Trek - Discovery.1x04.Ita.Eng.sub.ita.eng.iCV-MIRCrew.forcedeng.srt File size : 10.04 KB
- Star Trek - Discovery.1x04.Ita.Eng.sub.ita.eng.iCV-MIRCrew.ita.srt File size : 46.88 KB
- Star Trek - Discovery.1x04.Ita.Eng.sub.ita.eng.iCV-MIRCrew.srt File size : 11.49 KB
- Star Trek - Discovery.1x04.Ita.Eng.sub.ita.eng.iCV-MIRCrew.tlh.srt File size : 41.48 KB

Disqus