Chat
Users Online
+ 17 Guests online in the last 24 hours.

Welcome to our newest member, Williamssevago
Ads
Torrent name: Io faccio il morto - Je fais le mort (2013).H264.italian.french.Ac3-5.1.sub.ita.iCV-MIRCrew
File size: 1.33 GB
Seeds: 8
Leechs: 3
Categories: Movies SD
Torrent hash: 49f2b24819b3b6e7f9e42e6beb51c32b5fa2943a
Social Share:
Uploader: robbyrs
Verified torrent:
    - udp://tracker.coppersurfer.tk:6969/announce
    - udp://tracker.opentrackr.org:1337/announce
    - udp://tracker.leechers-paradise.org:6969/announce
    - udp://9.rarbg.com:2710/announce
    - udp://9.rarbg.to:2710/announce
    - udp://9.rarbg.me:2710/announce
    - udp://glotorrents.pw:6969/announce
    - udp://tracker.openbittorrent.com:80/announce
    - udp://tracker.pubt.net:2710/announce
    - udp://tracker.ilibr.org:6969/announce
    - udp://tracker.ilibr.org:80/announce
    - udp://zer0day.to:1337/announce
    - udp://tracker.zer0day.to:1337/announce
    - udp://p4p.arenabg.com:1337/announce
    - udp://p4p.arenabg.ch:1337/announce
    - udp://explodie.org:6969/announce
    - udp://eddie4.nl:6969/announce
Download Io faccio il morto - Je fais le mort (2013).H264.italian.french.Ac3-5.1.sub.ita.iCV-MIRCrew
Download .torrent   Magnet Link
Torrent detail

Io faccio il morto - Je fais le mort (2013).H264.italian.french.Ac3-5.1.sub.ita.iCV-MIRCrew

Io faccio il morto - Je fais le mort (2013).H264.italian.french.Ac3-5.1.sub.ita.iCV-MIRCrew

[center]

[color=red][b][img]https://s23.postimg.org/b9yhws27f/0sc_Del1.png[/img]
[u]NO FOUND ONLY ORIGINAL RELEASE[/u]

[img]https://worldimages.gallery/images/2017/09/02/4716a3153385da57f9bf0ad75d1cdd7a.gif[/img]

My release is always in double track audio italian and Original audio
for select it use VLC or dvd player home
not use wmp

Io faccio il morto - Je fais le mort (2013)


[img]https://worldimages.gallery/images/2017/10/11/wf1794.png[/img]

[URL=https://www.imdb.com/title/tt2795848/][IMG]https://www.userlogos.org/files/logos/Sucka/imdb_new.png[/IMG][/URL]

[img]https://i.imgur.com/fGu1rKv.png[/img]

Titolo originale     Je fais le mort
Paese di produzione     Francia
Anno     2013
Durata     104 min
Genere     commedia
Regia     Jean-Paul Salomé
Produttore     Jean-Pierre Dardenne, Luc Dardenne, Michel Saint-Jean
Distribuzione (Italia)     Bolero Film
Fotografia     Pascal Ridao
Montaggio     Sylvie Lager
Musiche     Bruno Coulais

[img]https://i.imgur.com/W7kBqiE.png[/img]

    François Damiens: Jean Renault
    Géraldine Nakache: Noémie Desfontaines
    Lucien Jean-Baptiste: tenente Lamy
    Anne Le Ny: Madame Jacky
    Jean-Marie Winling: Michel Beauchatel
    Kévin Azaïs: Ludo

[img]https://i.imgur.com/bFK3ggF.png[/img]

L'attore quarantenne Jean Renault convive in uno stato di vita senza alcun fine: tagliato fuori dal cinema grazie al suo atteggiamento ossessivo durante la registrazione del suo ultimo film e anche dalla oramai abbandonato dalla sua ex-moglie. È quindi alla ricerca di un qualsiasi ruolo cinematografico presso l'ufficio di collocamento dove il suo consulente gli propone un'offerta di lavoro bizzarra: recitare "il morto" su alcune scene del crimine con lo scopo di aiutare la polizia a ricostruire i dettagli e le varie dinamiche

[img]https://i.imgur.com/48xHWWH.png[/img]

A has-been actor takes a job playing the victims in a homicide reenactment, where he sparks with the civil officer investigating the real-life crime.  

[img]https://i.imgur.com/K8bfNTy.png[/img]

[img]https://worldimages.gallery/images/2017/10/11/vlcsnap-2017-10-11-15h54m16s234.png[/img]

[url=https://worldimages.gallery/image/TK301][img]https://worldimages.gallery/images/2017/10/11/vlcsnap-2017-10-11-15h53m47s658.th.png[/img][/url] [url=https://worldimages.gallery/image/TKG6O][img]https://worldimages.gallery/images/2017/10/11/vlcsnap-2017-10-11-15h53m54s583.th.png[/img][/url] [url=https://worldimages.gallery/image/TKpJm][img]https://worldimages.gallery/images/2017/10/11/vlcsnap-2017-10-11-15h54m02s560.th.png[/img][/url] [url=https://worldimages.gallery/image/TN1z3][img]https://worldimages.gallery/images/2017/10/11/vlcsnap-2017-10-11-15h54m36s464.th.png[/img][/url]

[img]https://i.imgur.com/aVrMohH.png[/img]


[spoiler]
General
Unique ID                                : 127067717209541776957856592071255434277 (0x5F985A26C1AFA9DB5821D0E0C76CA425)
Complete name                            : Io faccio il morto (2013).H264.ita.fre.sub.ita.iCV-MIRCrew.mkv
Format                                   : Matroska
Format version                           : Version 2
File size                                : 1.32 GiB
Duration                                 : 1h 40mn
Overall bit rate                         : 1 877 Kbps
Encoded date                             : UTC 2017-10-07T16:34:03Z
Writing application                      : HandBrake 0.10.5 2016021100
Writing library                          : Lavf55.12.0

Video
ID                                       : 1
Format                                   : AVC
Format/Info                              : Advanced Video Codec
Format profile                           : [email protected]
Format settings, CABAC                   : Yes
Format settings, ReFrames                : 4 frames
Codec ID                                 : V_MPEG4/ISO/AVC
Duration                                 : 1h 40mn
Bit rate                                 : 1 290 Kbps
Width                                    : 688 pixels
Height                                   : 368 pixels
Display aspect ratio                     : 1.870
Frame rate mode                          : Variable
Frame rate                               : 25.000 fps
Color space                              : YUV
Chroma subsampling                       : 4:2:0
Bit depth                                : 8 bits
Scan type                                : Progressive
Bits/(Pixel*Frame)                       : 0.204
Stream size                              : 908 MiB (67%)
Writing library                          : x264 core 142 r2479 dd79a61
Encoding settings                        : cabac=1 / ref=1 / deblock=1:0:0 / analyse=0x1:0x111 / me=hex / subme=2 / psy=1 / psy_rd=1.00:0.00 / mixed_ref=0 / me_range=16 / chroma_me=1 / trellis=0 / 8x8dct=0 / cqm=0 / deadzone=21,11 / fast_pskip=1 / chroma_qp_offset=0 / threads=12 / lookahead_threads=2 / sliced_threads=0 / nr=0 / decimate=1 / interlaced=0 / bluray_compat=0 / constrained_intra=0 / bframes=3 / b_pyramid=2 / b_adapt=1 / b_bias=0 / direct=1 / weightb=1 / open_gop=0 / weightp=1 / keyint=250 / keyint_min=25 / scenecut=40 / intra_refresh=0 / rc_lookahead=10 / rc=abr / mbtree=1 / bitrate=1290 / ratetol=1.0 / qcomp=0.60 / qpmin=0 / qpmax=69 / qpstep=4 / vbv_maxrate=20000 / vbv_bufsize=25000 / nal_hrd=none / filler=0 / ip_ratio=1.40 / aq=1:1.00
Default                                  : Yes
Forced                                   : No
Color primaries                          : BT.470-6 System B, BT.470-6 System G, BT.601-6 625, BT.1358 625, BT.1700 625 PAL, BT.1700 625 SECAM
Transfer characteristics                 : BT.709-5, BT.1361
Matrix coefficients                      : BT.601-6 525, BT.1358 525, BT.1700 NTSC, SMPTE 170M

Audio #1
ID                                       : 2
Format                                   : AC-3
Format/Info                              : Audio Coding 3
Mode extension                           : CM (complete main)
Codec ID                                 : A_AC3
Duration                                 : 1h 40mn
Bit rate mode                            : Constant
Bit rate                                 : 384 Kbps
Channel(s)                               : 6 channels
Channel positions                        : Front: L C R, Side: L R, LFE
Sampling rate                            : 48.0 KHz
Bit depth                                : 16 bits
Compression mode                         : Lossy
Delay relative to video                  : 1mn 5s
Stream size                              : 276 MiB (20%)
Title                                    : Surround
Language                                 : Italian
Default                                  : Yes
Forced                                   : No

Audio #2
ID                                       : 3
Format                                   : AC-3
Format/Info                              : Audio Coding 3
Mode extension                           : CM (complete main)
Codec ID                                 : A_AC3
Duration                                 : 1h 40mn
Bit rate mode                            : Constant
Bit rate                                 : 192 Kbps
Channel(s)                               : 2 channels
Channel positions                        : Front: L R
Sampling rate                            : 48.0 KHz
Bit depth                                : 16 bits
Compression mode                         : Lossy
Delay relative to video                  : 1mn 5s
Stream size                              : 138 MiB (10%)
Title                                    : Stereo
Language                                 : French
Default                                  : No
Forced                                   : No

Text #1
ID                                       : 4
Format                                   : VobSub
Codec ID                                 : S_VOBSUB
Codec ID/Info                            : The same subtitle format used on DVDs
Language                                 : Italian
Default                                  : No
Forced                                   : No

Text #2
ID                                       : 5
Format                                   : VobSub
Codec ID                                 : S_VOBSUB
Codec ID/Info                            : The same subtitle format used on DVDs
Language                                 : Italian
Default                                  : No
Forced                                   : No

Text #3
ID                                       : 6
Format                                   : VobSub
Codec ID                                 : S_VOBSUB
Codec ID/Info                            : The same subtitle format used on DVDs
Language                                 : Italian
Default                                  : No
Forced                                   : No

Menu
00:00:00.000                             : :Chapter 1
00:07:27.840                             : :Chapter 2
00:14:02.680                             : :Chapter 3
00:20:10.120                             : :Chapter 4
00:29:14.520                             : :Chapter 5
00:38:25.000                             : :Chapter 6
00:47:17.600                             : :Chapter 7
00:56:26.760                             : :Chapter 8
01:05:21.160                             : :Chapter 9
01:13:33.560                             : :Chapter 10
01:24:04.480                             : :Chapter 11
01:32:37.880                             : :Chapter 12



[/spoiler]

[/color][/b][/center]

Files list

- Io faccio il morto (2013).H264.ita.fre.sub.ita.iCV-MIRCrew.mkv File size : 1.32 GB
- Io faccio il morto (2013).H264.ita.fre.sub.ita.iCV-MIRCrew_track4_ita.idx File size : 511 B
- Io faccio il morto (2013).H264.ita.fre.sub.ita.iCV-MIRCrew_track4_ita.sub File size : 8 KB
- Io faccio il morto (2013).H264.ita.fre.sub.ita.iCV-MIRCrew_track5_ita.idx File size : 54.68 KB
- Io faccio il morto (2013).H264.ita.fre.sub.ita.iCV-MIRCrew_track5_ita.sub File size : 5.47 MB
- Io faccio il morto (2013).H264.ita.fre.sub.ita.iCV-MIRCrew_track6_ita.idx File size : 48.93 KB
- Io faccio il morto (2013).H264.ita.fre.sub.ita.iCV-MIRCrew_track6_ita.sub File size : 4.84 MB

Disqus