Chat
Users Online
+ 17 Guests online in the last 24 hours.

Welcome to our newest member, Williamssevago
Ads
Torrent name: Ghost Rider 2007 720p Esub BluRay Dual Audio English Hindi GOPISAHI
File size: 744.47 MB
Seeds: 15
Leechs: 0
Categories: Movies HD
Torrent hash: 259d523758dbe661932e946451f9c75f6e4edf33
Social Share:
Uploader: gopisahi
Verified torrent:
    - http://ipv4.tracker.harry.lu/announce
    - http://ipv4.tracker.harry.lu:80/announce
    - http://163.172.180.68:80/announce
    - http://t.nyaatracker.com/announce
    - http://tracker.devil-torrents.pl:80/announce
    - http://tracker.devil-torrents.pl/announce
    - http://open.kickasstracker.com/announce
    - http://163.172.180.68/announce
    - http://t.nyaatracker.com:80/announce
    - http://retracker.mgts.by:80/announce
    - http://45.33.11.224/announce
    - http://tracker.torrentyorg.pl:80/announce
    - http://pt.lax.mx:80/announce
    - udp://tracker.coppersurfer.tk:6969/announce
    - udp://tracker.pirateparty.gr:6969/announce
Download Ghost Rider 2007 720p Esub BluRay Dual Audio English Hindi GOPISAHI
Download .torrent   Magnet Link
Torrent detail

Ghost Rider 2007 720p Esub BluRay Dual Audio English Hindi GOPISAHI

[center][img]https://i.imgur.com/oefNKkn.jpg[/img]
Format                         : Matroska
Format version                 : Version 4 / Version 2
File size                      : 744 MiB
Duration                       : 2 h 3 min
Overall bit rate               : 843 kb/s
Movie name                     : Ghost Rider 2007 GOPISAHI

Video
Format                         : AVC
Codec ID                       : V_MPEG4/ISO/AVC
Duration                       : 2 h 3 min
Bit rate                       : 661 kb/s
Width                          : 1 280 pixels
Height                         : 528 pixels
Display aspect ratio           : 2.40:1
Frame rate mode                : Constant
Frame rate                     : 23.976 (24000/1001) FPS
Stream size                    : 583 MiB (78%)
Title                          : GOPISAHI
Writing library                : x264 core 112

Audio #1
Format                         : AAC
Duration                       : 2 h 3 min
Bit rate                       : 89.8 kb/s
Channel(s)                     : 6 channels
Channel positions              : Front: L C R, Side: L R, LFE
Sampling rate                  : 44.1 kHz
Frame rate                     : 43.066 FPS (1024 SPF)
Compression mode               : Lossy
Stream size                    : 79.3 MiB (11%)
Title                          : GOPISAHI
Language                       : English

Audio #2
Format                         : AAC
Duration                       : 2 h 3 min
Bit rate                       : 89.8 kb/s
Channel(s)                     : 6 channels
Channel positions              : Front: L C R, Side: L R, LFE
Sampling rate                  : 44.1 kHz
Frame rate                     : 43.066 FPS (1024 SPF)
Stream size                    : 79.3 MiB (11%)
Title                          : GOPISAHI
Language                       : Hindi

Text
Language                       : English
[img]https://i.imgur.com/45rsfrS.jpg[/img]
[img]https://i.imgur.com/TF9fgTP.jpg[/img]
[img]https://i.imgur.com/Ev5rrH0.jpg[/img][/center]

Files list

- Ghost Rider 2007 720p Esub BluRay Dual Audio English Hindi GOPISAHI.mkv File size : 744.47 MB

Disqus