Chat
Users Online
+ 17 Guests online in the last 24 hours.

Welcome to our newest member, Williamssevago
Ads
Torrent name: War For The Planet Of The Apes 2017 GOPISAHI Esub BluRay Dual Audio English Hindi GOPISAHI
File size: 1.07 GB
Seeds: 15
Leechs: 0
Categories: Movies HD
Torrent hash: 0189386e7543b77b8af86bc6dd2db47a7048a5ef
Social Share:
Uploader: gopisahi
Verified torrent:
    - http://ipv4.tracker.harry.lu/announce
    - http://ipv4.tracker.harry.lu:80/announce
    - http://163.172.180.68:80/announce
    - http://t.nyaatracker.com/announce
    - http://tracker.devil-torrents.pl:80/announce
    - http://tracker.devil-torrents.pl/announce
    - http://open.kickasstracker.com/announce
    - http://163.172.180.68/announce
    - http://t.nyaatracker.com:80/announce
    - http://retracker.mgts.by:80/announce
    - http://45.33.11.224/announce
    - http://tracker.torrentyorg.pl:80/announce
    - http://pt.lax.mx:80/announce
    - udp://tracker.coppersurfer.tk:6969/announce
    - udp://tracker.pirateparty.gr:6969/announce
Download War For The Planet Of The Apes 2017 GOPISAHI Esub BluRay Dual Audio English Hindi GOPISAHI
Download .torrent   Magnet Link
Torrent detail

War For The Planet Of The Apes 2017 GOPISAHI Esub BluRay Dual Audio English Hindi GOPISAHI

[left]War For The Planet Of The Apes 2017 GOPISAHI Esub BluRay Dual Audio  English Hindi GOPISAHI

Note Hindi Audio DvD -Scr Chek Sample In
Torrent Then Write Fudu Coment

[img]https://i.imgur.com/WNqpnRy.jpg[/img]
Format                         : Matroska
Format version                 : Version 4 / Version 2
File size                      : 1.05 GiB
Duration                       : 2 h 20 min
Overall bit rate               : 1 075 kb/s
Movie name                     : War For The Planet Of The Apes 2017

Video
Format                         : AVC
Codec ID                       : V_MPEG4/ISO/AVC
Duration                       : 2 h 20 min
Bit rate                       : 900 kb/s
Width                          : 1 280 pixels
Height                         : 534 pixels
Display aspect ratio           : 2.40:1
Original display aspect ratio  : 2.40:1
Frame rate mode                : Constant
Frame rate                     : 23.976 (24000/1001) FPS
Stream size                    : 902 MiB (84%)
Writing library                : x264 

Audio #1
ID                             : 3
Format                         : AAC
Format/Info                    : Advanced Audio Codec
Format profile                 : LC
Codec ID                       : A_AAC
Duration                       : 2 h 20 min
Bit rate                       : 83.6 kb/s
Channel(s)                     : 6 channels
Channel positions              : Front: L C R, Side: L R, LFE
Sampling rate                  : 44.1 kHz
Frame rate                     : 43.066 FPS (1024 SPF)
Stream size                    : 83.8 MiB (8%)
Language                       : English

Audio #2
Format                         : AAC
Duration                       : 2 h 12 min
Bit rate                       : 93.6 kb/s
Channel(s)                     : 2 channels
Channel positions              : Front: L R
Sampling rate                  : 44.1 kHz
Frame rate                     : 43.066 FPS (1024 SPF)
Stream size                    : 88.8 MiB (8%)
Language                       : Hindi

Text
Language                       : English
[img]https://i.imgur.com/AUTEu49.jpg[/img]
[img]https://i.imgur.com/ZULPVSN.jpg[/img]
[img]https://i.imgur.com/SDGHPJM.jpg[/img]
[img]https://i.imgur.com/QpJ2I7r.jpg[/img][/left]

Files list

- War For The Planet Of The Apes 2017 COVER BLURAY GOPISAHI.jpg File size : 150.17 KB
- SAMPLE 2.mkv File size : 8.42 MB
- SAMPLE 1.mkv File size : 8.44 MB
- War For The Planet Of The Apes 2017 GOPISAHI.mkv File size : 1.05 GB

Disqus