Chat
Users Online
+ 8 Guests online in the last 24 hours.

Welcome to our newest member, nymxwjkytdy
Ads
Torrent name: My Neighbor Totoro - Il mio vicino Totoro - Tonari no Totoro (1988).H264.italian.jpn.Ac3.sub.ita.eng
File size: 1.18 GB
Seeds: 9
Leechs: 0
Categories: Movies SD
Torrent hash: 918921c163f1c7f24b21222e9b3fca71bfb4d689
Social Share:
Uploader: robbyrs
Verified torrent:
    - udp://tracker.coppersurfer.tk:6969/announce
    - udp://tracker.opentrackr.org:1337/announce
    - udp://tracker.leechers-paradise.org:6969/announce
    - udp://9.rarbg.com:2710/announce
    - udp://9.rarbg.to:2710/announce
    - udp://9.rarbg.me:2710/announce
    - udp://glotorrents.pw:6969/announce
    - udp://tracker.openbittorrent.com:80/announce
    - udp://tracker.pubt.net:2710/announce
    - udp://tracker.ilibr.org:6969/announce
    - udp://tracker.ilibr.org:80/announce
    - udp://zer0day.to:1337/announce
    - udp://tracker.zer0day.to:1337/announce
    - udp://p4p.arenabg.com:1337/announce
    - udp://p4p.arenabg.ch:1337/announce
    - udp://explodie.org:6969/announce
    - udp://eddie4.nl:6969/announce
Download My Neighbor Totoro - Il mio vicino Totoro - Tonari no Totoro (1988).H264.italian.jpn.Ac3.sub.ita.eng
Download .torrent   Magnet Link
Torrent detail

My Neighbor Totoro - Il mio vicino Totoro - Tonari no Totoro (1988).H264.italian.jpn.Ac3.sub.ita.eng

My Neighbor Totoro - Il mio vicino Totoro - Tonari no Totoro (1988).H264.italian.jpn.Ac3.sub.ita.eng.iCV-MIRCrew

[center]

[color=red][b][img]https://s23.postimg.org/b9yhws27f/0sc_Del1.png[/img]
[u]NO FOUND ONLY ORIGINAL RELEASE[/u]

[img]https://worldimages.gallery/images/2017/09/02/4716a3153385da57f9bf0ad75d1cdd7a.gif[/img]

My release is always in double track audio italian and Original audio
for select it use VLC or dvd player home
not use wmp

Il mio vicino Totoro - Tonari no Totoro (1988)

ENGLISH SUBTITLE INSIDE

[img]https://worldimages.gallery/images/2017/10/12/w0f699.png[/img]

[URL=https://www.imdb.com/title/tt0096283/][IMG]https://www.userlogos.org/files/logos/Sucka/imdb_new.png[/IMG][/URL]

[img]https://i.imgur.com/fGu1rKv.png[/img]

Titolo originale     となりのトトロ
Tonari no Totoro
Lingua originale     giapponese
Paese di produzione     Giappone
Anno     1988
Durata     86 min
Rapporto     1.85:1
Genere     animazione, fantastico
Regia     Hayao Miyazaki
Soggetto     Hayao Miyazaki, Kubo Tsugiko
Sceneggiatura     Hayao Miyazaki
Produttore     Toru Hara
Produttore esecutivo     Yasuyoshi Tokuma
Casa di produzione     Studio Ghibli
Distribuzione (Italia)     Lucky Red
Montaggio     Takeshi Seyama
Effetti speciali     Kaoru Tanifuji
Musiche     Joe Hisaishi
Scenografia     Kazuo Oga
Character design     Hayao Miyazaki
Animatori     Yoshiharu Sato
Sfondi     Junko Ina, Hidetoshi Kaneko, Shinji Kimura, Tsuyoshi Matsumuro, Hajime Matsuoka, Yuko Matsuura, Toshio Nozaki, Kiyomi Ota, Nobuhiro Otsuka, Makoto Shiraishi, Kiyoko Sugawara, Yôji Takeshige, Keiko Tamura, Sadahiko Tanaka, Akira Yamagawa, Masaki Yoshizaki

[img]https://i.imgur.com/W7kBqiE.png[/img]

Doppiatori originali

    Noriko Hidaka: Satsuki
    Chika Sakamoto: Mei
    Shigesato Itoi: Tatsuo Kusakabe
    Sumi Shimamoto: Yasuko Kusakabe
    Hitoshi Takagi: Totoro
    Tanie Kitabayashi: Nonnina
    Yūko Maruyama: Kanta

Doppiatori italiani

    Letizia Ciampa: Satsuki
    Lilian Caputo: Mei
    Oreste Baldini: Tatsuo Kusakabe
    Roberta Pellini: Yasuko Kusakabe
    Vittorio Amandola: Totoro
    Liù Bosisio: Nonnina
    George Castiglia: Kanta

[img]https://i.imgur.com/bFK3ggF.png[/img]

La storia è ambientata nell'hinterland della Tokyo degli anni cinquanta. Le sorelline Satsuki e Mei si stanno trasferendo col padre a Tokorozawa, un piccolo villaggio di campagna. Il trasferimento serve per andare a vivere più vicini alla loro mamma che è ricoverata in ospedale. Inizia così il loro viaggio alla scoperta di un mondo nuovo, ma soprattutto alla scoperta della natura.

[img]https://i.imgur.com/48xHWWH.png[/img]

When two girls move to the country to be near their ailing mother, they have adventures with the wondrous forest spirits who live nearby.

[img]https://i.imgur.com/K8bfNTy.png[/img]

[img]https://worldimages.gallery/images/2017/10/12/vlcsnap-2017-10-12-16h37m13s515.png[/img]

[url=https://worldimages.gallery/image/TgG3c][img]https://worldimages.gallery/images/2017/10/12/vlcsnap-2017-10-12-16h36m37s475.th.png[/img][/url] [url=https://worldimages.gallery/image/Tr1MA][img]https://worldimages.gallery/images/2017/10/12/vlcsnap-2017-10-12-16h36m45s144.th.png[/img][/url] [url=https://worldimages.gallery/image/TrLvD][img]https://worldimages.gallery/images/2017/10/12/vlcsnap-2017-10-12-16h36m54s551.th.png[/img][/url] [url=https://worldimages.gallery/image/TrTgY][img]https://worldimages.gallery/images/2017/10/12/vlcsnap-2017-10-12-16h37m19s219.th.png[/img][/url]

[img]https://i.imgur.com/aVrMohH.png[/img]


[spoiler]
General
Unique ID                                : 221501779502986221200997411134004900588 (0xA6A3B0E496B1CFF8125D7A3011A1B2EC)
Complete name                            : Il mio vicino Totoro - Tonari no Totoro (1988).H264.ita.jpn.eng.sub.ita.eng.iCV-MIRCrew.mkv
Format                                   : Matroska
Format version                           : Version 2
File size                                : 1.17 GiB
Duration                                 : 1h 26mn
Overall bit rate                         : 1 940 Kbps
Encoded date                             : UTC 2017-08-05T15:36:11Z
Writing application                      : HandBrake 0.10.5 2016021100
Writing library                          : Lavf55.12.0

Video
ID                                       : 1
Format                                   : AVC
Format/Info                              : Advanced Video Codec
Format profile                           : [email protected]
Format settings, CABAC                   : Yes
Format settings, ReFrames                : 4 frames
Codec ID                                 : V_MPEG4/ISO/AVC
Duration                                 : 1h 26mn
Bit rate                                 : 1 290 Kbps
Width                                    : 720 pixels
Height                                   : 384 pixels
Display aspect ratio                     : 1.875
Frame rate mode                          : Variable
Frame rate                               : 23.976 fps
Color space                              : YUV
Chroma subsampling                       : 4:2:0
Bit depth                                : 8 bits
Scan type                                : Progressive
Bits/(Pixel*Frame)                       : 0.195
Stream size                              : 780 MiB (65%)
Writing library                          : x264 core 142 r2479 dd79a61
Encoding settings                        : cabac=1 / ref=1 / deblock=1:1:1 / analyse=0x1:0x111 / me=hex / subme=2 / psy=1 / psy_rd=0.40:0.00 / mixed_ref=0 / me_range=16 / chroma_me=1 / trellis=0 / 8x8dct=0 / cqm=0 / deadzone=21,11 / fast_pskip=1 / chroma_qp_offset=0 / threads=12 / lookahead_threads=3 / sliced_threads=0 / nr=0 / decimate=1 / interlaced=0 / bluray_compat=0 / constrained_intra=0 / bframes=5 / b_pyramid=2 / b_adapt=1 / b_bias=0 / direct=1 / weightb=1 / open_gop=0 / weightp=1 / keyint=240 / keyint_min=24 / scenecut=40 / intra_refresh=0 / rc_lookahead=10 / rc=abr / mbtree=1 / bitrate=1290 / ratetol=1.0 / qcomp=0.60 / qpmin=0 / qpmax=69 / qpstep=4 / vbv_maxrate=20000 / vbv_bufsize=25000 / nal_hrd=none / filler=0 / ip_ratio=1.40 / aq=1:0.60
Default                                  : Yes
Forced                                   : No
Color primaries                          : BT.709-5, BT.1361, IEC 61966-2-4, SMPTE RP177
Transfer characteristics                 : BT.709-5, BT.1361
Matrix coefficients                      : BT.709-5, BT.1361, IEC 61966-2-4 709, SMPTE RP177

Audio #1
ID                                       : 2
Format                                   : AC-3
Format/Info                              : Audio Coding 3
Mode extension                           : CM (complete main)
Codec ID                                 : A_AC3
Duration                                 : 1h 26mn
Bit rate mode                            : Constant
Bit rate                                 : 256 Kbps
Channel(s)                               : 2 channels
Channel positions                        : Front: L R
Sampling rate                            : 48.0 KHz
Bit depth                                : 16 bits
Compression mode                         : Lossy
Delay relative to video                  : 1mn 5s
Stream size                              : 158 MiB (13%)
Title                                    : Stereo
Language                                 : Italian
Default                                  : Yes
Forced                                   : No

Audio #2
ID                                       : 3
Format                                   : AC-3
Format/Info                              : Audio Coding 3
Mode extension                           : CM (complete main)
Codec ID                                 : A_AC3
Duration                                 : 1h 26mn
Bit rate mode                            : Constant
Bit rate                                 : 192 Kbps
Channel(s)                               : 2 channels
Channel positions                        : Front: L R
Sampling rate                            : 48.0 KHz
Bit depth                                : 16 bits
Compression mode                         : Lossy
Delay relative to video                  : 1mn 5s
Stream size                              : 119 MiB (10%)
Title                                    : Stereo
Language                                 : Japanese
Default                                  : No
Forced                                   : No

Audio #3
ID                                       : 4
Format                                   : AC-3
Format/Info                              : Audio Coding 3
Mode extension                           : CM (complete main)
Codec ID                                 : A_AC3
Duration                                 : 1h 26mn
Bit rate mode                            : Constant
Bit rate                                 : 192 Kbps
Channel(s)                               : 2 channels
Channel positions                        : Front: L R
Sampling rate                            : 48.0 KHz
Bit depth                                : 16 bits
Compression mode                         : Lossy
Delay relative to video                  : 1mn 5s
Stream size                              : 119 MiB (10%)
Title                                    : Stereo
Language                                 : English
Default                                  : No
Forced                                   : No

Text #1
ID                                       : 5
Format                                   : ASS
Codec ID                                 : S_TEXT/ASS
Codec ID/Info                            : Advanced Sub Station Alpha
Compression mode                         : Lossless
Language                                 : Italian
Default                                  : No
Forced                                   : No

Text #2
ID                                       : 6
Format                                   : VobSub
Codec ID                                 : S_VOBSUB
Codec ID/Info                            : The same subtitle format used on DVDs
Language                                 : Italian
Default                                  : No
Forced                                   : No

Text #3
ID                                       : 7
Format                                   : VobSub
Codec ID                                 : S_VOBSUB
Codec ID/Info                            : The same subtitle format used on DVDs
Language                                 : English
Default                                  : No
Forced                                   : No

Menu
00:00:00.000                             : :00:00:00.000
00:02:12.298                             : :00:02:12.132
00:07:27.363                             : :00:07:27.280
00:10:34.425                             : :00:10:34.342
00:15:42.149                             : :00:15:42.066
00:20:53.669                             : :00:20:53.586
00:24:56.161                             : :00:24:55.953
00:31:27.468                             : :00:31:27.385
00:35:46.644                             : :00:35:46.561
00:41:19.894                             : :00:41:19.811
00:46:18.734                             : :00:46:18.651
00:50:06.753                             : :00:50:06.670
00:56:17.123                             : :00:56:17.040
01:02:10.643                             : :01:02:10.393
01:07:08.691                             : :01:07:08.608
01:11:36.458                             : :01:11:36.375
01:17:06.830                             : :01:17:06.622
01:23:25.917                             : :01:23:25.626



[/spoiler]

[/color][/b][/center]

Files list

- Il mio vicino Totoro - Tonari no Totoro (1988).H264.ita.jpn.eng.sub.ita.eng.iCV-MIRCrew.eng.idx File size : 26.16 KB
- Il mio vicino Totoro - Tonari no Totoro (1988).H264.ita.jpn.eng.sub.ita.eng.iCV-MIRCrew.eng.sub File size : 3.37 MB
- Il mio vicino Totoro - Tonari no Totoro (1988).H264.ita.jpn.eng.sub.ita.eng.iCV-MIRCrew.ita.idx File size : 31.96 KB
- Il mio vicino Totoro - Tonari no Totoro (1988).H264.ita.jpn.eng.sub.ita.eng.iCV-MIRCrew.ita.sub File size : 4.77 MB
- Il mio vicino Totoro - Tonari no Totoro (1988).H264.ita.jpn.eng.sub.ita.eng.iCV-MIRCrew.mkv File size : 1.17 GB
- Il mio vicino Totoro - Tonari no Totoro (1988).H264.ita.jpn.eng.sub.ita.eng.iCV-MIRCrew.srt File size : 1.45 KB

Disqus