Chat
Users Online
+ 17 Guests online in the last 24 hours.

Welcome to our newest member, Williamssevago
Ads
Torrent name: Decoys 2 Alien Seduction 2007 720p Esub BluRay Dual Audio English Hindi GOPISAHI
File size: 657.96 MB
Seeds: 0
Leechs: 0
Categories: Movies HD
Torrent hash: 846888e6315d540f099c1a6b02b039786f043d4b
Social Share:
Uploader: gopisahi
Verified torrent:
    - http://ipv4.tracker.harry.lu/announce
    - http://ipv4.tracker.harry.lu:80/announce
    - http://163.172.180.68:80/announce
    - http://t.nyaatracker.com/announce
    - http://tracker.devil-torrents.pl:80/announce
    - http://tracker.devil-torrents.pl/announce
    - http://open.kickasstracker.com/announce
    - http://163.172.180.68/announce
    - http://t.nyaatracker.com:80/announce
    - http://retracker.mgts.by:80/announce
    - http://45.33.11.224/announce
    - http://tracker.torrentyorg.pl:80/announce
    - http://pt.lax.mx:80/announce
    - udp://tracker.coppersurfer.tk:6969/announce
    - udp://tracker.pirateparty.gr:6969/announce
Download Decoys 2 Alien Seduction 2007 720p Esub BluRay Dual Audio English Hindi GOPISAHI
Download .torrent   Magnet Link
Torrent detail

Decoys 2 Alien Seduction 2007 720p Esub BluRay Dual Audio English Hindi GOPISAHI

[img]https://i.imgur.com/DFcJ5Gf.jpg[/img]
Format                         : Matroska
Format version                 : Version 4 / Version 2
File size                      : 658 MiB
Duration                       : 1 h 34 min
Overall bit rate               : 978 kb/s
Movie name                     : Decoys 2 Alien Seduction 2007 GOPISAHI

Video
Format                         : AVC
Codec ID                       : V_MPEG4/ISO/AVC
Duration                       : 1 h 34 min
Bit rate                       : 799 kb/s
Width                          : 1 280 pixels
Height                         : 720 pixels
Display aspect ratio           : 16:9
Frame rate mode                : Constant
Frame rate                     : 23.976 (24000/1001) FPS
Stream size                    : 537 MiB (82%)
Writing library                : x264 

Audio #1
Format                         : AAC
Duration                       : 1 h 34 min
Bit rate                       : 87.9 kb/s
Channel(s)                     : 6 channels
Channel positions              : Front: L C R, Side: L R, LFE
Sampling rate                  : 44.1 kHz
Frame rate                     : 43.066 FPS (1024 SPF)
Stream size                    : 59.1 MiB (9%)
Language                       : English

Audio #23
Format                         : AAC
Duration                       : 1 h 34 min
Bit rate                       : 88.8 kb/s
Channel(s)                     : 6 channels
Channel positions              : Front: L C R, Side: L R, LFE
Sampling rate                  : 44.1 kHz
Frame rate                     : 43.066 FPS (1024 SPF)
Stream size                    : 59.7 MiB (9%)
Language                       : Hindi

Text
Language                       : English
[img]https://i.imgur.com/4k43LSx.jpg[/img]
[img]https://i.imgur.com/U0m4DLr.jpg[/img]
[img]https://i.imgur.com/Bumf5YX.jpg[/img]

Files list

- Decoys 2 Alien Seduction 2007 720p Esub BluRay Dual Audio English Hindi GOPISAHI.mkv File size : 657.96 MB

Disqus